<?xml version="1.0" standalone="no"?>
<!DOCTYPE svg PUBLIC "-//W3C//DTD SVG 1.1//EN" "http://www.w3.org/Graphics/SVG/1.1/DTD/svg11.dtd" >
<svg xmlns="http://www.w3.org/2000/svg">
<metadata>Generated by IcoMoon</metadata>
<defs>
<font id="Pe-media-icons" horiz-adv-x="1024">
<font-face units-per-em="1024" ascent="960" descent="-64" />
<missing-glyph horiz-adv-x="1024" />
<glyph unicode="&#x20;" d="" horiz-adv-x="512" />
<glyph unicode="&#xe600;" d="M896 438.4v345.6h-83.2v96h-540.8v20.8c0 32-27.2 59.2-59.2 59.2h-153.6c-32 0-59.2-27.2-59.2-59.2v-614.4c0-51.2 41.6-94.4 94.4-94.4 1.6 0 1.6 0 3.2 0v0h384c8-142.4 126.4-256 272-256 150.4 0 272 121.6 272 272-1.6 97.6-52.8 182.4-129.6 230.4zM128 286.4c0-16-16-30.4-33.6-30.4-16 0-30.4 14.4-30.4 30.4v609.6h144v-80h540.8v-32h-620.8v-497.6zM484.8 256h-299.2c0 0 0 0 0 0 1.6 4.8 3.2 9.6 3.2 12.8 0 0 0 1.6 0 1.6 0 4.8 1.6 9.6 1.6 14.4v435.2h641.6v-252.8c-25.6 8-52.8 12.8-80 12.8-134.4 0-244.8-96-267.2-224zM878.4 176h-94.4v-96h-64v96h-97.6v64h97.6v96h64v-96h94.4v-64z" />
<glyph unicode="&#xe601;" d="M800 384c-38.4 0-73.6-9.6-104-25.6-30.4 12.8-65.6 25.6-104 38.4-1.6 1.6-4.8 12.8-4.8 19.2v9.6c0 17.6 1.6 30.4 4.8 36.8 6.4 14.4 16 41.6 20.8 67.2 12.8 19.2 24 44.8 30.4 76.8 8 38.4 4.8 57.6-1.6 76.8 0 9.6 1.6 43.2 6.4 70.4 6.4 33.6-3.2 89.6-38.4 134.4-24 30.4-68.8 67.2-147.2 72h-28.8c-78.4-4.8-123.2-41.6-147.2-72-35.2-44.8-44.8-100.8-38.4-134.4 4.8-27.2 6.4-59.2 6.4-70.4-6.4-19.2-9.6-38.4-1.6-76.8 6.4-32 16-57.6 30.4-76.8 4.8-27.2 14.4-52.8 20.8-67.2 3.2-6.4 4.8-19.2 4.8-36.8v-8c0-8-3.2-19.2-4.8-20.8-216-67.2-304-153.6-304-300.8v-32h598.4c35.2-75.2 113.6-128 201.6-128 123.2 0 224 100.8 224 224s-100.8 224-224 224zM65.6 128c8 70.4 49.6 144 257.6 206.4 41.6 12.8 51.2 59.2 49.6 83.2v6.4c0 27.2-3.2 48-11.2 64-6.4 12.8-14.4 36.8-17.6 57.6l-1.6 9.6-6.4 8c-4.8 6.4-14.4 20.8-22.4 56-6.4 28.8-3.2 35.2 0 41.6 0 1.6 1.6 3.2 1.6 6.4v1.6c3.2 16-1.6 67.2-6.4 94.4-3.2 12.8 0 51.2 25.6 84.8 16 19.2 44.8 43.2 99.2 48h25.6c54.4-3.2 84.8-27.2 99.2-48 25.6-32 28.8-70.4 25.6-84.8-4.8-27.2-9.6-78.4-6.4-94.4v-1.6c0-1.6 1.6-3.2 1.6-6.4 1.6-6.4 4.8-12.8 0-41.6-6.4-33.6-16-49.6-22.4-56l-6.4-8-1.6-9.6c-3.2-20.8-11.2-44.8-17.6-57.6-8-16-11.2-36.8-11.2-64v-6.4c-1.6-24 8-70.4 49.6-83.2 24-6.4 44.8-14.4 64-22.4-35.2-38.4-57.6-92.8-57.6-152 0-11.2 1.6-20.8 3.2-32h-513.6zM928 128h-96v-96h-64v96h-96v64h96v96h64v-96h96v-64z" />
<glyph unicode="&#xe602;" d="M768 480h-224v224c0 17.6-14.4 32-32 32s-32-14.4-32-32v-224h-224c-17.6 0-32-14.4-32-32s14.4-32 32-32h224v-224c0-17.6 14.4-32 32-32s32 14.4 32 32v224h224c17.6 0 32 14.4 32 32s-14.4 32-32 32zM512 960c-283.2 0-512-228.8-512-512s228.8-512 512-512 512 228.8 512 512c0 283.2-228.8 512-512 512zM512 0c-246.4 0-448 201.6-448 448s201.6 448 448 448c246.4 0 448-201.6 448-448s-201.6-448-448-448z" />
<glyph unicode="&#xe603;" d="M320 896v64h-115.2c-113.6 0-204.8-91.2-204.8-204.8v-115.2h64l256 256zM819.2 960h-115.2v-64l256-256h64v115.2c0 113.6-91.2 204.8-204.8 204.8zM512 832c-248 0-448-200-448-448 0-112 41.6-214.4 108.8-292.8l-100.8-100.8c-12.8-12.8-12.8-32 0-44.8 8-6.4 16-9.6 24-9.6s16 3.2 22.4 9.6l100.8 100.8c78.4-68.8 180.8-110.4 292.8-110.4s214.4 41.6 292.8 108.8l100.8-100.8c6.4-4.8 14.4-8 22.4-8s16 3.2 22.4 9.6c12.8 12.8 12.8 32 0 44.8l-100.8 100.8c68.8 78.4 110.4 180.8 110.4 292.8 0 248-200 448-448 448zM128 384c0 211.2 172.8 384 384 384s384-172.8 384-384c0-211.2-172.8-384-384-384s-384 172.8-384 384zM480 416h-192v-64h256v352h-64z" />
<glyph unicode="&#xe604;" d="M0 896v-896h1024v896h-1024zM960 64h-800v768h800v-768zM560 96c195.2 0 352 158.4 352 352 0 195.2-158.4 352-352 352s-352-158.4-352-352c0-195.2 156.8-352 352-352zM560 480c17.6 0 32-14.4 32-32s-14.4-32-32-32c-17.6 0-32 14.4-32 32s14.4 32 32 32zM560 160v0 192c52.8 0 96 43.2 96 96 0 9.6-1.6 17.6-3.2 27.2l152 126.4c27.2-44.8 44.8-96 44.8-152-1.6-160-131.2-289.6-289.6-289.6zM764.8 651.2l-150.4-124.8c-6.4 4.8-14.4 8-22.4 11.2v196.8c67.2-8 128-38.4 172.8-83.2zM528 734.4v-195.2c-36.8-12.8-64-48-64-91.2 0-22.4 8-41.6 19.2-57.6l-153.6-115.2c-36.8 48-57.6 108.8-57.6 172.8 0 148.8 112 270.4 256 286.4z" />
<glyph unicode="&#xe605;" d="M936 800h-72v72c0 48-40 88-88 88h-688c-48 0-88-40-88-88v-688c0-48 40-88 88-88h72v-72c0-48 40-88 88-88h688c48 0 88 40 88 88v688c0 48-40 88-88 88zM64 184v688c0 12.8 11.2 24 24 24h688c12.8 0 24-11.2 24-24v-688c0-12.8-11.2-24-24-24h-688c-12.8 0-24 11.2-24 24zM288 460.8c-8 1.6-16 3.2-24 3.2-48 0-88-40-88-88s40-88 88-88 88 40 88 88c0 1.6 0 3.2 0 3.2v0 272l160 80v-176c-8 1.6-16 3.2-24 3.2-48 0-88-40-88-88s40-88 88-88c46.4 0 83.2 35.2 88 80v0 372.8l-288-144v-230.4z" />
<glyph unicode="&#xe606;" d="M955.2 704h-27.2v27.2c0 38.4-30.4 68.8-68.8 68.8h-59.2v91.2c0 38.4-30.4 68.8-68.8 68.8h-662.4c-38.4 0-68.8-30.4-68.8-68.8v-662.4c0-38.4 30.4-68.8 68.8-68.8h91.2v-59.2c0-38.4 30.4-68.8 68.8-68.8h27.2v-27.2c0-38.4 30.4-68.8 68.8-68.8h630.4c38.4 0 68.8 30.4 68.8 68.8v630.4c0 38.4-30.4 68.8-68.8 68.8zM64 228.8v662.4c0 3.2 1.6 4.8 4.8 4.8h662.4c3.2 0 4.8-1.6 4.8-4.8v-662.4c0-3.2-1.6-4.8-4.8-4.8h-662.4c-3.2 0-4.8 1.6-4.8 4.8zM224 100.8v59.2h507.2c38.4 0 68.8 30.4 68.8 68.8v507.2h59.2c3.2 0 4.8-1.6 4.8-4.8v-630.4c0-3.2-1.6-4.8-4.8-4.8h-630.4c-3.2 0-4.8 1.6-4.8 4.8z" />
<glyph unicode="&#xe607;" d="M832 473.6v171.2c46.4 14.4 80 56 80 107.2 0 62.4-49.6 112-112 112-51.2 0-92.8-33.6-107.2-80h-171.2l-176 176-22.4-22.4c-91.2-91.2-140.8-211.2-140.8-339.2 0-110.4 36.8-214.4 104-299.2l-278.4-310.4c-8-9.6-11.2-22.4-4.8-35.2 4.8-9.6 16-17.6 28.8-17.6h576c12.8 0 24 8 28.8 19.2s3.2 25.6-4.8 35.2l-145.6 161.6c56-22.4 115.2-33.6 176-33.6 128 0 248 49.6 339.2 140.8l22.4 22.4-192 192zM699.2 606.4l48 48c6.4-3.2 14.4-6.4 20.8-8v-107.2l-68.8 67.2zM800 800c27.2 0 48-20.8 48-48s-20.8-48-48-48-48 20.8-48 48 20.8 48 48 48zM692.8 720c1.6-8 4.8-14.4 8-20.8l-48-48-67.2 68.8h107.2zM345.6 868.8l459.2-459.2c-158.4-139.2-366.4-160-481.6-41.6-11.2 12.8-22.4 25.6-30.4 40-76.8 147.2-59.2 331.2 52.8 460.8zM104 0l216 240 216-240h-432z" />
<glyph unicode="&#xe608;" d="M968 960h-272c-8 0-16-1.6-24-6.4-8 4.8-16 6.4-24 6.4h-272c-8 0-16-1.6-24-6.4-8 4.8-16 6.4-24 6.4h-272c-30.4 0-56-25.6-56-56v-912c0-30.4 25.6-56 56-56h272c8 0 16 1.6 24 6.4 8-3.2 16-6.4 24-6.4h272c8 0 16 1.6 24 6.4 8-3.2 16-6.4 24-6.4h272c30.4 0 56 25.6 56 56v912c0 30.4-25.6 56-56 56zM64 896h256v-896h-256v896zM384 896h256v-896h-256v896zM960 0h-256v896h256v-896zM768 832h128v-128h-128v128zM768 640h128v-320h-128v320zM448 832h128v-128h-128v128zM448 640h128v-320h-128v320zM128 832h128v-128h-128v128zM128 640h128v-320h-128v320zM256 160c0-35.346-28.654-64-64-64s-64 28.654-64 64c0 35.346 28.654 64 64 64s64-28.654 64-64zM576 160c0-35.346-28.654-64-64-64s-64 28.654-64 64c0 35.346 28.654 64 64 64s64-28.654 64-64zM896 160c0-35.346-28.654-64-64-64s-64 28.654-64 64c0 35.346 28.654 64 64 64s64-28.654 64-64z" />
<glyph unicode="&#xe609;" d="M558.4 608l-49.6 160-51.2-160h-164.8l132.8-97.6-51.2-158.4 134.4 99.2 132.8-99.2-51.2 158.4 132.8 97.6zM857.6 313.6c44.8 65.6 70.4 145.6 70.4 230.4 0 228.8-187.2 416-416 416s-416-187.2-416-416c0-84.8 25.6-164.8 70.4-230.4l-166.4-249.6 179.2 16 76.8-144 116.8 216c43.2-16 91.2-24 139.2-24 49.6 0 96 8 139.2 24l116.8-216 76.8 144 179.2-16-166.4 249.6zM160 544c0 193.6 158.4 352 352 352s352-158.4 352-352c0-193.6-158.4-352-352-352s-352 158.4-352 352z" />
<glyph unicode="&#xe60a;" d="M0 768h128v-640h-128v640zM224 448l416-384v768l-416-384zM576 686.4v-238.4h-257.6l257.6 238.4z" horiz-adv-x="640" />
<glyph unicode="&#xe60b;" d="M788.8 616l-44.8 44.8-136-136-136 136-44.8-44.8 136-136-136-136 44.8-44.8 136 136 136-136 44.8 44.8-136 136zM1024 772.8c0 51.2-41.6 91.2-91.2 91.2h-585.6c-32 0-60.8-17.6-76.8-43.2l-270.4-340.8v-64l270.4-340.8c3.2-6.4 8-11.2 12.8-16v0c16-16 40-27.2 64-27.2h585.6c49.6 0 91.2 41.6 91.2 91.2v62.4c0 0 0 0 0 0s0 1.6 0 1.6v585.6zM960 187.2c0-14.4-12.8-27.2-27.2-27.2h-585.6c-9.6 0-16 4.8-19.2 8v0c-1.6 1.6-3.2 3.2-3.2 4.8l-1.6 3.2-3.2 1.6-238.4 302.4 238.4 302.4 3.2 6.4c4.8 8 14.4 12.8 22.4 12.8h585.6c14.4 0 27.2-12.8 27.2-27.2v-587.2z" />
<glyph unicode="&#xe60c;" d="M864 832l-384-307.2v243.2l-480-320 480-320v243.2l384-307.2v768zM800 699.2v-252.8h-312l-1.6 1.6 313.6 251.2zM416 648v-201.6h-297.6l-3.2 1.6 300.8 200z" horiz-adv-x="864" />
<glyph unicode="&#xe60d;" d="M948.8 884.8c-49.6 49.6-115.2 75.2-180.8 75.2s-131.2-25.6-180.8-75.2l-512-510.4c-100.8-100.8-100.8-262.4 0-363.2 49.6-49.6 115.2-75.2 180.8-75.2s131.2 25.6 180.8 75.2l510.4 510.4c102.4 100.8 102.4 262.4 1.6 363.2zM393.6 56c-36.8-35.2-84.8-56-137.6-56s-99.2 20.8-136 56c-75.2 75.2-75.2 196.8 0 272l120 120 272-272-118.4-120zM904 566.4l-120-118.4-272 272 118.4 118.4c36.8 36.8 84.8 57.6 137.6 57.6 51.2 0 99.2-20.8 136-56 75.2-75.2 75.2-198.4 0-273.6zM736 704c-17.6 0-32-14.4-32-32s14.4-32 32-32c17.6 0 32 14.4 32 32s-14.4 32-32 32zM672 736c0-17.673-14.327-32-32-32s-32 14.327-32 32c0 17.673 14.327 32 32 32s32-14.327 32-32zM800 608c-17.6 0-32-14.4-32-32s14.4-32 32-32c17.6 0 32 14.4 32 32s-14.4 32-32 32zM864 736c-17.6 0-32-14.4-32-32s14.4-32 32-32c17.6 0 32 14.4 32 32s-14.4 32-32 32zM800 800c0-17.673-14.327-32-32-32s-32 14.327-32 32c0 17.673 14.327 32 32 32s32-14.327 32-32zM320 224c0-17.673-14.327-32-32-32s-32 14.327-32 32c0 17.673 14.327 32 32 32s32-14.327 32-32zM416 160c0-17.673-14.327-32-32-32s-32 14.327-32 32c0 17.673 14.327 32 32 32s32-14.327 32-32zM256 320c0-17.673-14.327-32-32-32s-32 14.327-32 32c0 17.673 14.327 32 32 32s32-14.327 32-32zM192 192c0-17.673-14.327-32-32-32s-32 14.327-32 32c0 17.673 14.327 32 32 32s32-14.327 32-32zM288 96c0-17.673-14.327-32-32-32s-32 14.327-32 32c0 17.673 14.327 32 32 32s32-14.327 32-32z" />
<glyph unicode="&#xe60e;" d="M992 80v800h-192v-800h-64v416h-192v-416h-64v544h-192v-544h-64v288h-192v-288h-32v-64h1024v64h-32zM96 80v224h64v-224h-64zM352 80v480h64v-480h-64z" />
<glyph unicode="&#xe60f;" d="M1024 608h-115.2l-240 240c1.6 4.8 3.2 9.6 3.2 16 0 35.2-28.8 64-64 64s-64-28.8-64-64c0-35.2 28.8-64 64-64 6.4 0 11.2 1.6 16 1.6l193.6-193.6h-611.2l193.6 193.6c4.8-1.6 11.2-1.6 16-1.6 35.2 0 64 28.8 64 64s-28.8 64-64 64-64-28.8-64-64c0-6.4 1.6-11.2 3.2-16l-240-240h-115.2v-192h62.4l49.6-329.6v-1.6c12.8-65.6 73.6-116.8 139.2-116.8h521.6c64 0 126.4 52.8 139.2 118.4l49.6 329.6h62.4v192zM64 544h896v-64h-896v64zM848 97.6c-6.4-35.2-41.6-65.6-75.2-65.6h-521.6c-33.6 0-68.8 30.4-75.2 65.6l-40 254.4h152v-224c0-17.6 14.4-32 32-32s32 14.4 32 32v224h128v-224c0-17.6 14.4-32 32-32s32 14.4 32 32v224h128v-224c0-17.6 14.4-32 32-32s32 14.4 32 32v224h152l-40-254.4z" />
<glyph unicode="&#xe610;" d="M976 608h-48v8c0 48-40 88-88 88h-752c-48 0-88-40-88-88v-336c0-48 40-88 88-88h752c48 0 88 40 88 88v8h48c27.2 0 48 20.8 48 48v224c0 27.2-20.8 48-48 48zM960 544v-96h-32v96h32zM864 280c0-12.8-11.2-24-24-24h-752c-12.8 0-24 11.2-24 24v336c0 12.8 11.2 24 24 24h752c12.8 0 24-11.2 24-24v-336zM128 320h288l256 256h-544z" />
<glyph unicode="&#xe611;" d="M1009.6 280l-177.6 488v104c0 48-40 88-88 88h-464c-48 0-88-40-88-88v-99.2l-177.6-492.8c-8-14.4-14.4-30.4-14.4-48v-144c0-48 40-88 88-88h8v-64h64v64h704v-64h64v64h8c48 0 88 40 88 88v144c0 17.6-4.8 33.6-14.4 48zM177.6 544h668.8l81.6-224h-832l81.6 224zM776 736l24-64h-576l22.4 64h529.6zM256 872c0 12.8 11.2 24 24 24h464c12.8 0 24-11.2 24-24v-72h-512v72zM960 88c0-12.8-11.2-24-24-24h-848c-12.8 0-24 11.2-24 24v144c0 12.8 11.2 24 24 24h848c6.4 0 12.8-3.2 17.6-6.4l1.6-3.2h1.6c3.2-3.2 4.8-8 4.8-12.8v-145.6z" />
<glyph unicode="&#xe612;" d="M0 912v-192h48v-736h64v96h800v-96h64v736h48v192h-1024zM800 144h-688v512h64v-448h624v-64zM800 496h-560v160h179.2c6.4-19.2 24-32 44.8-32h96c20.8 0 38.4 12.8 44.8 32h195.2v-160zM240 432h179.2c6.4-19.2 24-32 44.8-32h96c20.8 0 38.4 12.8 44.8 32h195.2v-160h-560v160zM960 784h-896v64h896v-64z" />
<glyph unicode="&#xe613;" d="M832 496c-17.6 0-33.6-3.2-49.6-6.4l-60.8 184 108.8-11.2c17.6-1.6 19.2-14.4 19.2-20.8 0-4.8-3.2-17.6-14.4-16-17.6 1.6-33.6-12.8-33.6-30.4-1.6-17.6 12.8-33.6 30.4-33.6 1.6 0 3.2 0 6.4 0 41.6 0 73.6 32 76.8 75.2 3.2 41.6-22.4 86.4-76.8 89.6l-137.6 14.4c-8 9.6-22.4 14.4-35.2 11.2-16-4.8-25.6-24-20.8-40l40-118.4h-307.2l-33.6 78.4 28.8-11.2c3.2-1.6 8-1.6 11.2-1.6 12.8 0 25.6 8 30.4 20.8 6.4 16-1.6 35.2-17.6 41.6l-160 62.4c-16 6.4-35.2-1.6-41.6-17.6s1.6-35.2 17.6-41.6l48-19.2 140.8-328-30.4-3.2c-27.2 70.4-97.6 121.6-179.2 121.6-105.6 0-192-86.4-192-192s86.4-192 192-192c81.6 0 150.4 51.2 179.2 121.6l88-11.2c1.6 0 3.2 0 4.8 0 44.8 0 80 35.2 80 80 0 9.6-1.6 20.8-6.4 28.8l171.2 174.4 14.4-43.2c-49.6-33.6-83.2-92.8-83.2-158.4 0-105.6 86.4-192 192-192s192 86.4 192 192c0 105.6-86.4 192-192 192zM192 176c-70.4 0-128 57.6-128 128s57.6 128 128 128c48 0 91.2-27.2 112-67.2l-116.8-12.8c-24-1.6-43.2-22.4-43.2-48 0-24 17.6-44.8 41.6-48v0l118.4-14.4c-22.4-38.4-64-65.6-112-65.6zM492.8 377.6c-8 3.2-16 4.8-25.6 4.8l-62.4 145.6h236.8l-148.8-150.4zM832 176c-70.4 0-128 57.6-128 128 0 36.8 16 70.4 41.6 94.4l24-70.4c4.8-27.2 27.2-56 62.4-56 17.6 0 32 14.4 32 32s-12.8 30.4-30.4 32c-1.6 1.6-1.6 4.8-1.6 4.8l-28.8 86.4c9.6 1.6 19.2 3.2 28.8 3.2 70.4 0 128-57.6 128-128 0-68.8-57.6-126.4-128-126.4z" />
<glyph unicode="&#xe614;" d="M224 416c-70.4 0-128-57.6-128-128 0-17.6 14.4-32 32-32s32 14.4 32 32c0 35.2 28.8 64 64 64 17.6 0 32 14.4 32 32s-14.4 32-32 32zM800 416c-70.4 0-128-57.6-128-128 0-17.6 14.4-32 32-32s32 14.4 32 32c0 35.2 28.8 64 64 64 17.6 0 32 14.4 32 32s-14.4 32-32 32zM985.6 412.8l-169.6 278.4c-12.8 22.4-30.4 41.6-51.2 56-12.8 48-56 84.8-108.8 84.8-62.4 0-112-51.2-112-113.6 0-16 3.2-30.4 9.6-44.8-6.4-16-9.6-32-9.6-49.6 0-6.4 0-14.4 1.6-20.8-11.2 3.2-22.4 4.8-33.6 4.8s-22.4-1.6-33.6-4.8c1.6 8 1.6 14.4 1.6 20.8 0 17.6-3.2 35.2-9.6 49.6 6.4 14.4 9.6 28.8 9.6 44.8 0 62.4-49.6 113.6-112 113.6-52.8 0-97.6-36.8-108.8-86.4-20.8-12.8-38.4-32-51.2-56l-171.2-278.4c0 0 0-1.6 0-1.6-24-35.2-36.8-76.8-36.8-121.6 0-123.2 100.8-224 224-224 118.4 0 216 92.8 224 209.6 0 0 0 1.6 0 1.6l8 96c35.2 16 76.8 16 112 0l8-96c0-1.6 0-1.6 0-3.2 8-115.2 105.6-208 222.4-208 123.2 0 224 100.8 224 224 1.6 46.4-12.8 89.6-36.8 124.8zM611.2 598.4c0 1.6 0 3.2-1.6 4.8-1.6 8-1.6 14.4-1.6 20.8 0 38.4 27.2 70.4 64 78.4l72-198.4c-46.4-12.8-86.4-38.4-116.8-75.2l-16 169.6zM264 657.6c0 0 1.6 1.6 1.6 1.6 14.4 27.2 41.6 43.2 72 43.2 14.4 0 27.2-4.8 40-11.2l-73.6-195.2c-25.6 11.2-52.8 16-80 16-19.2 0-36.8-3.2-54.4-6.4l94.4 152zM224 128c-88 0-160 72-160 160s72 160 160 160c88 0 160-72 160-160s-72-160-160-160zM512 448c-17.6 0-33.6-1.6-49.6-6.4l6.4 76.8c8 16 24 25.6 43.2 25.6 17.6 0 33.6-9.6 43.2-25.6l6.4-76.8c-16 3.2-33.6 6.4-49.6 6.4zM800 128c-88 0-160 72-160 160s72 160 160 160 160-72 160-160c0-88-72-160-160-160z" />
<glyph unicode="&#xe615;" d="M960 320v512h-320v48h-96v80h-64v-80h-96v-48h-320v-512c-35.2 0-64-28.8-64-64s28.8-64 64-64h203.2l-120-225.6 56-30.4 136 256h140.8v-224h64v224h140.8l134.4-256 56 30.4-118.4 225.6h203.2c35.2 0 64 28.8 64 64s-28.8 64-64 64zM448 816h128v-32h-128v32zM128 768h256v-48h256v48h256v-448h-768v448z" />
<glyph unicode="&#xe616;" d="M848 0c-27.2 0-48 20.8-48 48 0 17.6-14.4 32-32 32s-32-14.4-32-32c0-27.2-20.8-48-48-48s-48 20.8-48 48c0 17.6-14.4 32-32 32s-32-14.4-32-32c0-27.2-20.8-48-48-48s-48 20.8-48 48c0 17.6-14.4 32-32 32s-32-14.4-32-32c0-27.2-20.8-48-48-48s-48 20.8-48 48c0 17.6-14.4 32-32 32s-32-14.4-32-32c0-27.2-20.8-48-48-48s-48 20.8-48 48c0 17.6-14.4 32-32 32s-32-14.4-32-32c0-27.2-20.8-48-48-48-17.6 0-32-14.4-32-32s14.4-32 32-32c32 0 59.2 12.8 80 33.6 20.8-20.8 48-33.6 80-33.6s59.2 12.8 80 33.6c20.8-20.8 48-33.6 80-33.6s59.2 12.8 80 33.6c20.8-20.8 48-33.6 80-33.6s59.2 12.8 80 33.6c20.8-20.8 48-33.6 80-33.6s59.2 12.8 80 33.6c20.8-20.8 48-33.6 80-33.6 17.6 0 32 14.4 32 32s-14.4 32-32 32zM928 192c-27.2 0-48 20.8-48 48 0 17.6-14.4 32-32 32s-32-14.4-32-32c0-27.2-20.8-48-48-48-19.2 0-36.8 11.2-43.2 28.8 107.2 54.4 171.2 137.6 171.2 227.2 0 17.6-14.4 32-32 32h-384v64h384v64h-51.2l-332.8 329.6v22.4h-64v-480h-384c-17.6 0-32-14.4-32-32 0-89.6 64-172.8 171.2-227.2-8-16-24-28.8-43.2-28.8-27.2 0-48 20.8-48 48 0 17.6-14.4 32-32 32s-32-14.4-32-32c0-62.4 49.6-112 112-112 32 0 59.2 12.8 80 33.6 20.8-20.8 48-33.6 80-33.6s59.2 12.8 80 33.6c20.8-20.8 48-33.6 80-33.6s59.2 12.8 80 33.6c20.8-20.8 48-33.6 80-33.6s59.2 12.8 80 33.6c20.8-20.8 48-33.6 80-33.6s59.2 12.8 80 33.6c20.8-20.8 48-33.6 80-33.6 17.6 0 32 14.4 32 32s-14.4 32-32 32zM608 192c-27.2 0-48 20.8-48 48 0 17.6-14.4 32-32 32s-32-14.4-32-32c0-27.2-20.8-48-48-48s-48 20.8-48 48c0 17.6-14.4 32-32 32s-32-14.4-32-32c0-27.2-20.8-48-48-48s-48 20.8-48 48c0 16-11.2 28.8-25.6 32-78.4 36.8-131.2 88-145.6 144h760c-14.4-56-67.2-108.8-145.6-144-14.4-3.2-25.6-16-25.6-32-1.6-27.2-22.4-48-49.6-48z" horiz-adv-x="960" />
<glyph unicode="&#xe617;" d="M872 800c-27.2 40-72 64-120 64-14.4 0-28.8-1.6-43.2-6.4-44.8 64-116.8 102.4-196.8 102.4-76.8 0-148.8-36.8-193.6-99.2-9.6 1.6-20.8 3.2-30.4 3.2-64 0-121.6-38.4-147.2-96-76.8-1.6-140.8-65.6-140.8-144 0-80 64-144 144-144h161.6l174.4-172.8v-51.2h-224v-64h40l80-256h270.4l80 256h41.6v64h-224v115.2l108.8 108.8h211.2c88 0 160 72 160 160 0 84.8-67.2 155.2-152 160zM363.2 192h180.8v-192h-120l-60.8 192zM64 624c0 44.8 35.2 80 80 80 4.8 0 9.6 0 14.4-1.6l30.4-4.8 6.4 28.8c11.2 43.2 48 73.6 92.8 73.6 11.2 0 22.4-1.6 33.6-6.4l25.6-9.6 12.8 24c32 54.4 89.6 88 152 88 65.6 0 124.8-36.8 155.2-94.4l16-28.8v-1.6c6.4 1.6 12.8 1.6 19.2 1.6 54.4 0 99.2-44.8 99.2-99.2 0-38.4-22.4-72-54.4-88-3.2-16-16-36.8-51.2-43.2h-363.2l-3.2 3.2-3.2-1.6h-182.4c-43.2 0-80 35.2-80 80zM396.8 480h83.2v-83.2l-83.2 83.2zM544 460.8v19.2h19.2l-19.2-19.2z" />
<glyph unicode="&#xe618;" d="M944 840v80h-320c-44.8 0-84.8-20.8-112-54.4-27.2 32-67.2 54.4-112 54.4h-320v-80h-80v-752h352c38.4 0 80-17.6 80-64v0c0-27.2 35.2-48 80-48s80 20.8 80 48v0c0 46.4 41.6 64 80 64h352v752h-80zM624 856h256v-640h-256c-28.8 0-57.6-9.6-80-24v584c0 44.8 35.2 80 80 80zM144 856h256c44.8 0 80-35.2 80-80v-584c-22.4 16-51.2 24-80 24h-256v640z" />
<glyph unicode="&#xe619;" d="M992 912h-96v32h-192v-32h-64c-52.8 0-99.2-25.6-128-64-28.8 38.4-75.2 64-128 64h-352c-17.6 0-32-14.4-32-32v-768c0-17.6 14.4-32 32-32h352c52.8 0 96-43.2 96-96 0-17.6 14.4-32 32-32s32 14.4 32 32c0 52.8 43.2 96 96 96h352c17.6 0 32 14.4 32 32v768c0 17.6-14.4 32-32 32zM480 112c-27.2 20.8-60.8 32-96 32h-320v704h320c52.8 0 96-43.2 96-96v-640zM960 144h-320c-35.2 0-68.8-11.2-96-32v640c0 52.8 43.2 96 96 96h64v-288l96 100.8 96-100.8v288h64v-704z" />
<glyph unicode="&#xe61a;" d="M736 764.8v147.2c0 27.2-20.8 48-48 48h-560c-70.4 0-128-57.6-128-128 0 0 0 0 0 0s0 0 0 0v0-768c0-70.4 57.6-128 128-128h592c27.2 0 48 20.8 48 48v736c0 20.8-12.8 38.4-32 44.8zM128 896h544v-32h-544v-64h544v-32h-544c-35.2 0-64 28.8-64 64s28.8 64 64 64zM704 0h-545.6v704h545.6v-704z" horiz-adv-x="768" />
<glyph unicode="&#xe61b;" d="M516.8 956.8h-425.6c-49.6 0-91.2-40-91.2-91.2v-926.4l304 286.4 304-286.4v926.4c0 51.2-40 91.2-91.2 91.2zM64 316.8v548.8c0 14.4 11.2 27.2 27.2 27.2h100.8v-684.8l-128-120v228.8zM544 318.4v0-230.4l-128 120v684.8h100.8c14.4 0 27.2-11.2 27.2-27.2v-547.2z" horiz-adv-x="608" />
<glyph unicode="&#xe61c;" d="M832 768c0 105.6-86.4 192-192 192h-448c-105.6 0-192-86.4-192-192v-832l256 214.4 256-214.4v576h320v256zM448 68.8l-192 164.8-192-164.8v699.2c0 70.4 57.6 128 128 128h305.6c-1.6-1.6-1.6-1.6-3.2-3.2s-3.2-4.8-4.8-6.4c-1.6-3.2-4.8-4.8-6.4-8-1.6-1.6-3.2-4.8-4.8-6.4-1.6-3.2-3.2-6.4-4.8-8s-3.2-4.8-3.2-6.4c-1.6-3.2-3.2-6.4-4.8-9.6s-1.6-4.8-3.2-8c-1.6-3.2-3.2-6.4-3.2-9.6-1.6-3.2-1.6-4.8-3.2-8s-1.6-6.4-3.2-11.2c0-1.6-1.6-4.8-1.6-6.4 0-4.8-1.6-8-1.6-12.8 0-1.6 0-4.8-1.6-6.4 0-6.4-1.6-12.8-1.6-19.2v-697.6z" horiz-adv-x="832" />
<glyph unicode="&#xe61d;" d="M688 928h-80v32h-256v-32h-224c-70.4 0-128-57.6-128-128v-736c0 0 0 0 0 0s0 0 0 0c0-70.4 57.6-128 128-128v0h528c27.2 0 48 20.8 48 48v147.2c19.2 6.4 32 24 32 44.8v704c0 27.2-20.8 48-48 48zM240 864h112v-416l128 128 128-126.4v414.4h64v-672h-544c0 0 0 0 0 0v672c0 0 0 0 1.6 0h110.4zM576 0h-448c-35.2 0-64 28.8-64 64s28.8 64 64 64h512v-32h-512v-64h512v-32h-64z" horiz-adv-x="736" />
<glyph unicode="&#xe61e;" d="M910.4 880h-398.4v32c0 17.6-14.4 32-32 32h-288c-17.6 0-32-14.4-32-32v-32h-46.4c-62.4 0-113.6-51.2-113.6-113.6v-699.2c0-64 51.2-115.2 113.6-115.2h796.8c62.4 0 113.6 51.2 113.6 113.6v700.8c0 62.4-51.2 113.6-113.6 113.6zM960 65.6c0-27.2-22.4-49.6-49.6-49.6h-796.8c-27.2 0-49.6 22.4-49.6 49.6v700.8c0 27.2 22.4 49.6 49.6 49.6h46.4v-448l176 160 176-160v448h398.4c27.2 0 49.6-22.4 49.6-49.6v-700.8zM576 688h288v-64h-288v64zM576 560h288v-64h-288v64zM576 432h288v-64h-288v64zM160 304h704v-64h-704v64zM160 176h704v-64h-704v64z" />
<glyph unicode="&#xe61f;" d="M1022.4 14.4l-214.4 803.2c-4.8 17.6-22.4 27.2-38.4 22.4l-139.2-36.8c-8-1.6-14.4-8-19.2-14.4-4.8-8-4.8-16-3.2-24l32-124.8h-176v288c0 17.6-14.4 32-32 32h-240c-17.6 0-32-14.4-32-32v-96h-128c-17.6 0-32-14.4-32-32v-832c0-17.6 14.4-32 32-32h640c17.6 0 32 14.4 32 32v432l118.4-440c3.2-14.4 16-24 30.4-24 3.2 0 4.8 0 8 1.6l139.2 36.8c8 1.6 14.4 8 19.2 14.4 4.8 8 6.4 17.6 3.2 25.6zM160 128h-96v512h96v-512zM224 704h128v-512h-128v512zM464 384h112v-160h-112v160zM576 576v-128h-112v128h112zM224 896h128v-128h-128v128zM160 768v-64h-96v64h96zM64 64h96v-64h-96v64zM224 128h128v-128h-128v128zM464 0v160h112v-160h-112zM875.2 8l-198.4 742.4 76.8 20.8 198.4-742.4-76.8-20.8z" />
<glyph unicode="&#xe620;" d="M1008 635.2c0 0 0 0 0 0l-180.8 278.4c-6.4 9.6-16 14.4-27.2 14.4h-576c-11.2 0-20.8-4.8-27.2-14.4l-182.4-281.6c0 0 0 0 0 0-9.6-14.4-14.4-30.4-14.4-48v-528c0-48 40-88 88-88h848c48 0 88 40 88 88v528c0 19.2-6.4 36.8-16 51.2zM241.6 864h238.4v-192h-363.2l124.8 192zM64 56v528c0 12.8 11.2 24 24 24h776v-288h-352v-224h352v-64h-776c-12.8 0-24 11.2-24 24zM832 256v-96h-256v96h256z" />
<glyph unicode="&#xe621;" d="M1024 864h-1024v-288h64v-456c0-48 40-88 88-88h720c48 0 88 40 88 88v456h64v288zM872 96h-720c-12.8 0-24 11.2-24 24v392h768v-392c0-12.8-11.2-24-24-24zM960 640v0 0h-896v160h896v-160zM608 480h-192c-44.8 0-80-35.2-80-80s35.2-80 80-80h192c44.8 0 80 35.2 80 80s-35.2 80-80 80zM608 384h-192c-9.6 0-16 6.4-16 16s6.4 16 16 16h192c9.6 0 16-6.4 16-16s-6.4-16-16-16z" />
<glyph unicode="&#xe622;" d="M1020.8 316.8l-62.4 219.2c-3.2 14.4-16 24-30.4 24h-16v80h-89.6c-6.4 30.4-19.2 57.6-33.6 84.8l62.4 62.4-113.6 113.6-60.8-60.8c-25.6 16-54.4 28.8-84.8 36.8v83.2h-160v-84.8c-30.4-8-59.2-20.8-84.8-36.8l-60.8 60.8-113.6-113.6 62.4-62.4c-14.4-25.6-25.6-54.4-33.6-84.8h-89.6v-80h-16c-14.4 0-27.2-9.6-30.4-24l-64-224c-3.2-9.6 0-19.2 4.8-27.2 6.4-6.4 16-11.2 25.6-11.2h32v-243.2c0-51.2 41.6-92.8 91.2-92.8h712c51.2 0 92.8 41.6 92.8 92.8v243.2h32c0 0 0 0 0 0 17.6 0 32 14.4 32 32 0 4.8 0 9.6-3.2 12.8zM512 672c62.4 0 112-49.6 112-112h-224c0 62.4 49.6 112 112 112zM120 496h784l46.4-160h-876.8l46.4 160zM896 28.8c0-16-12.8-28.8-28.8-28.8h-712c-16 0-27.2 12.8-27.2 28.8v243.2h768v-243.2z" />
<glyph unicode="&#xe623;" d="M512 960l-512-235.2v-545.6l512-243.2 512 235.2v553.6l-512 235.2zM512 515.2l-403.2 188.8 179.2 81.6 396.8-190.4-172.8-80zM544 459.2l224 104v-440l-224-102.4v438.4zM915.2 704l-156.8-73.6-395.2 190.4 148.8 68.8 403.2-185.6zM64 654.4l416-193.6v-438.4l-416 196.8v435.2zM128 553.6v-264l288-131.2v262.4l-288 132.8zM352 257.6l-160 73.6v123.2l160-73.6v-123.2z" />
<glyph unicode="&#xe624;" d="M932.8 736h-164.8v100.8c0 49.6-41.6 91.2-91.2 91.2h-329.6c-49.6 0-91.2-41.6-91.2-91.2v-100.8h-164.8c-49.6 0-91.2-41.6-91.2-91.2v-585.6c0-49.6 41.6-91.2 91.2-91.2h841.6c49.6 0 91.2 41.6 91.2 91.2v585.6c0 49.6-41.6 91.2-91.2 91.2zM320 832h384v-96h-384v96zM960 59.2c0-14.4-12.8-27.2-27.2-27.2h-841.6c-14.4 0-27.2 12.8-27.2 27.2v201.6c8-3.2 17.6-4.8 27.2-4.8h324.8c0-52.8 43.2-96 96-96s96 43.2 96 96h324.8c9.6 0 19.2 1.6 27.2 4.8v-201.6zM480 256v30.4h64v-30.4c0-17.6-14.4-32-32-32s-32 14.4-32 32zM960 347.2c0-14.4-12.8-27.2-27.2-27.2h-324.8v96h-192v-96h-324.8c-14.4 0-27.2 12.8-27.2 27.2v297.6c0 14.4 12.8 27.2 27.2 27.2h841.6c12.8 0 24-9.6 27.2-22.4 0-1.6 0-3.2 0-4.8v-297.6z" />
<glyph unicode="&#xe625;" d="M1011.2 916.8c-14.4 14.4-40 16-57.6 1.6-408-252.8-600-502.4-673.6-617.6-9.6 1.6-20.8 3.2-30.4 3.2-40 0-76.8-16-105.6-43.2-17.6-17.6-30.4-40-38.4-64-6.4-19.2-11.2-38.4-16-57.6-9.6-43.2-19.2-83.2-44.8-100.8l-44.8-38.4 56-19.2c35.2-8 68.8-12.8 100.8-12.8 0 0 0 0 0 0 76.8 0 142.4 28.8 198.4 83.2 36.8 36.8 49.6 88 40 134.4 115.2 72 366.4 265.6 619.2 676.8 12.8 16 12.8 38.4-3.2 54.4zM168 177.6c3.2 14.4 11.2 27.2 22.4 36.8 16 16 36.8 24 59.2 24s43.2-8 59.2-24c3.2-3.2 6.4-8 9.6-11.2 0-1.6 1.6-1.6 1.6-3.2 52.8-84.8-124.8-73.6-166.4-73.6 4.8 16 8 32 12.8 46.4l1.6 4.8zM355.2 260.8c-4.8 4.8-9.6 9.6-16 12.8 24 36.8 59.2 84.8 108.8 144l64-64c-57.6-49.6-107.2-84.8-144-108.8-3.2 4.8-8 11.2-12.8 16z" />
<glyph unicode="&#xe626;" d="M928 832c0-17.673-14.327-32-32-32s-32 14.327-32 32c0 17.673 14.327 32 32 32s32-14.327 32-32zM896 960c-38.4 0-75.2-17.6-99.2-48 0-1.6-1.6-1.6-1.6-3.2l-182.4-246.4c-12.8-12.8-35.2-16-49.6-16-38.4 0-78.4 16-96 30.4-6.4 4.8-14.4 8-24 8-8 0-16-4.8-22.4-11.2l-288-332.8c-28.8-33.6-62.4-48-92.8-40-14.4 3.2-28.8-3.2-35.2-14.4-6.4-12.8-4.8-28.8 4.8-38.4 33.6-33.6 246.4-217.6 254.4-224 6.4-4.8 12.8-8 19.2-8 0-6.4 3.2-14.4 8-19.2l48-49.6c6.4-6.4 14.4-9.6 22.4-9.6 3.2 0 8 0 11.2 1.6s89.6 35.2 192 152l230.4 260.8c11.2 12.8 9.6 33.6-3.2 44.8s-30.4 38.4-40 70.4c-8 28.8-6.4 52.8 4.8 67.2l219.2 198.4c3.2 3.2 6.4 6.4 9.6 8 1.6 1.6 1.6 1.6 3.2 3.2 22.4 24 35.2 54.4 35.2 88 0 70.4-57.6 128-128 128zM299.2 433.6l57.6 65.6 201.6-177.6-36.8-40 70.4-65.6-22.4-24-270.4 241.6zM600 368l-201.6 179.2 32 36.8 203.2-179.2-33.6-36.8zM107.2 244.8c27.2 9.6 51.2 28.8 73.6 54.4l75.2 84.8 198.4-176c-86.4-91.2-152-118.4-164.8-123.2-52.8 46.4-129.6 113.6-182.4 160zM942.4 787.2c0 0-1.6 0 0 0-1.6-1.6-4.8-3.2-6.4-4.8 0 0-1.6 0-1.6-1.6l-220.8-198.4c-1.6-1.6-1.6-1.6-3.2-3.2-25.6-30.4-33.6-75.2-19.2-126.4 1.6-8 4.8-14.4 6.4-22.4l-177.6 156.8c14.4-3.2 30.4-4.8 44.8-4.8 41.6 0 76.8 12.8 97.6 38.4 0 0 1.6 1.6 1.6 1.6l180.8 248c0 0 0 0 1.6 1.6 11.2 14.4 30.4 24 49.6 24 35.2 0 64-28.8 64-64 0-16-6.4-32-17.6-44.8z" />
<glyph unicode="&#xe627;" d="M512 915.2c-281.6 0-512-188.8-512-422.4 0-72 22.4-144 65.6-208 0 0 0 0 0 0 41.6-78.4 62.4-113.6-28.8-256-8-12.8-6.4-27.2 3.2-38.4 6.4-6.4 14.4-9.6 24-9.6 4.8 0 9.6 1.6 12.8 3.2 12.8 6.4 25.6 11.2 38.4 17.6 76.8 36.8 172.8 83.2 246.4 83.2 11.2 0 20.8-1.6 30.4-3.2 1.6 0 3.2 0 4.8 0 36.8-6.4 75.2-11.2 113.6-11.2 281.6 0 512 188.8 512 422.4 1.6 233.6-228.8 422.4-510.4 422.4zM512 134.4c-33.6 0-68.8 3.2-102.4 9.6 0 0-3.2 0-3.2 0-14.4 3.2-28.8 4.8-43.2 4.8-72 0-150.4-30.4-222.4-64 43.2 94.4 25.6 150.4-16 228.8-1.6 1.6-1.6 4.8-3.2 6.4-38.4 52.8-57.6 112-57.6 172.8 0 198.4 201.6 358.4 448 358.4s448-160 448-358.4c0-196.8-201.6-358.4-448-358.4zM288 652.8h448v-64h-448v64zM288 524.8h448v-64h-448v64zM288 396.8h320v-64h-320v64z" />
<glyph unicode="&#xe628;" d="M1024 592c0 203.2-171.2 368-384 368-156.8 0-291.2-89.6-352-219.2-164.8-41.6-288-185.6-288-356.8-1.6-163.2 121.6-260.8 0-448 0 0 172.8 80 400 80 14.4 0 27.2 1.6 38.4 3.2 126.4 17.6 233.6 92.8 289.6 198.4 172.8-17.6 296-73.6 296-73.6-121.6 187.2 1.6 284.8 0 448zM428.8 83.2h-6.4c-4.8-3.2-12.8-3.2-22.4-3.2-112 0-212.8-17.6-286.4-38.4 14.4 78.4-4.8 145.6-24 206.4-14.4 44.8-25.6 88-25.6 134.4v0 0c0 126.4 83.2 236.8 200 281.6 36.8 14.4 78.4 22.4 120 22.4 176 0 320-136 320-304 0-59.2-17.6-113.6-49.6-160-48-73.6-129.6-126.4-225.6-139.2z" />
<glyph unicode="&#xe629;" d="M932.8 704h-100.8v100.8c0 49.6-40 91.2-91.2 91.2h-649.6c-49.6 0-91.2-41.6-91.2-91.2v-457.6c0-51.2 41.6-91.2 91.2-91.2h68.8v-192l192 192h32v-4.8c0-49.6 41.6-91.2 91.2-91.2h228.8l160-160v160h68.8c49.6 0 91.2 41.6 91.2 91.2v361.6c0 49.6-41.6 91.2-91.2 91.2zM326.4 320l-19.2-19.2-83.2-81.6v100.8h-132.8c-14.4 0-27.2 12.8-27.2 27.2v457.6c0 14.4 12.8 27.2 27.2 27.2h649.6c14.4 0 27.2-12.8 27.2-27.2v-457.6c0-14.4-12.8-27.2-27.2-27.2h-414.4z" />
<glyph unicode="&#xe62a;" d="M864 576v128h-320v192h-160v64h-64v-64h-160v-192h-64v-768h832v640h-64zM608 640h192v-64h-192v64zM224 832h256v-128h-256v128zM544 0h-160v96h-160v-96h-64v640h384v-640zM800 0v96h-128v-96h-64v512h256v-64h-192v-64h192v-64h-192v-64h192v-64h-192v-64h192v-128h-64zM256 800h160v-64h-160v64zM224 576h256v-64h-256v64zM224 448h256v-64h-256v64zM224 320h256v-64h-256v64zM224 192h256v-64h-256v64z" />
<glyph unicode="&#xe62b;" d="M896 480h-32v392c0 48-40 88-88 88h-624c-48 0-88-40-88-88v-392h-32c-17.6 0-32-14.4-32-32v-160c0-17.6 14.4-32 32-32h32v-168c0-40 27.2-73.6 64-84.8v-11.2c0-30.4 25.6-56 56-56h48c30.4 0 56 25.6 56 56v8h352v-8c0-30.4 25.6-56 56-56h48c30.4 0 56 25.6 56 56v11.2c36.8 11.2 64 44.8 64 84.8v168h32c17.6 0 32 14.4 32 32v160c0 17.6-14.4 32-32 32zM496 256v512h304v-512h-304zM128 256v512h304v-512h-304zM776 64h-624c-12.8 0-24 11.2-24 24v104h64v-32c0-17.6 14.4-32 32-32h96c17.6 0 32 14.4 32 32v32h224v-32c0-17.6 14.4-32 32-32h96c17.6 0 32 14.4 32 32v32h64v-104c0-12.8-11.2-24-24-24z" horiz-adv-x="928" />
<glyph unicode="&#xe62c;" d="M936 960h-848c-48 0-88-40-88-88v-848c0-48 40-88 88-88h848c48 0 88 40 88 88v848c0 48-40 88-88 88zM896 176v-64h-288v64h288zM608 240v64h288v-64h-288zM960 872v-392h-416v416h392c12.8 0 24-11.2 24-24zM88 896h392v-416h-416v392c0 12.8 11.2 24 24 24zM64 24v392h416v-416h-392c-12.8 0-24 11.2-24 24zM608 720h288v-64h-288v64zM240 544h64v112h112v64h-112v112h-64v-112h-112v-64h112zM396.8 289.6l-46.4 44.8-78.4-80-80 80-44.8-44.8 80-80-80-78.4 44.8-46.4 80 80 78.4-80 46.4 46.4-80 78.4z" />
<glyph unicode="&#xe62d;" d="M700.8 960h-601.6c-49.6 0-91.2-41.6-91.2-91.2v-841.6c0-49.6 41.6-91.2 91.2-91.2h601.6c49.6 0 91.2 41.6 91.2 91.2v841.6c0 49.6-41.6 91.2-91.2 91.2zM728 11.2c0 1.6-12.8-11.2-27.2-11.2h-601.6c-14.4 0-27.2 12.8-27.2 27.2v841.6c0 14.4 12.8 27.2 27.2 27.2h601.6c14.4 0 27.2-12.8 27.2-43.2v-841.6zM136 544h144v-112h-144v112zM520 544h144v-112h-144v112zM328 544h144v-112h-144v112zM136 368h144v-112h-144v112zM328 368h144v-112h-144v112zM136 192h144v-112h-144v112zM328 192h144v-112h-144v112zM520 368h144v-288h-144v288zM664 800h-528v-192h528v192zM600 672h-64v64h64v-64z" horiz-adv-x="800" />
<glyph unicode="&#xe62e;" d="M804.8 864h-68.8v48c0 27.2-20.8 48-48 48s-48-20.8-48-48v-48h-384v48c0 27.2-20.8 48-48 48s-48-20.8-48-48v-48h-68.8c-49.6 0-91.2-40-91.2-91.2v-745.6c0-49.6 41.6-91.2 91.2-91.2h713.6c49.6 0 91.2 41.6 91.2 91.2v745.6c0 51.2-41.6 91.2-91.2 91.2zM128 800h32v-16c0-27.2 20.8-48 48-48s48 20.8 48 48v16h32v-96h-160v96zM608 800h32v-16c0-27.2 20.8-48 48-48s48 20.8 48 48v16h32v-96h-160v96zM804.8 0h-713.6c-14.4 0-27.2 12.8-27.2 27.2v9.6c8-3.2 17.6-4.8 27.2-4.8h713.6c9.6 0 19.2 1.6 27.2 4.8v-9.6c0-14.4-12.8-27.2-27.2-27.2zM832 123.2c0-14.4-12.8-27.2-27.2-27.2h-713.6c-14.4 0-27.2 12.8-27.2 27.2v516.8h768v-516.8zM233.6 470.4l44.8-44.8 41.6 41.6v-243.2h64v320h-76.8zM448 480h110.4l-112-256h68.8l108.8 244.8v75.2h-176z" horiz-adv-x="896" />
<glyph unicode="&#xe62f;" d="M616 800h-240c-48 0-88-40-88-88v-528c0-48 40-88 88-88h240c48 0 88 40 88 88v528c0 48-40 88-88 88zM496 144c-22.4 0-40 17.6-40 40s17.6 40 40 40c22.4 0 40-17.6 40-40s-17.6-40-40-40zM352 256v416h288v-416h-288zM265.6 620.8l-51.2 38.4c-46.4-60.8-70.4-134.4-70.4-211.2s24-150.4 70.4-211.2l51.2 38.4c-38.4 49.6-57.6 110.4-57.6 172.8s19.2 123.2 57.6 172.8zM726.4 620.8c38.4-49.6 57.6-110.4 57.6-172.8s-19.2-123.2-57.6-172.8l51.2-38.4c46.4 60.8 70.4 134.4 70.4 211.2s-24 150.4-70.4 211.2l-51.2-38.4zM921.6 755.2l-51.2-38.4c59.2-78.4 89.6-171.2 89.6-268.8s-30.4-190.4-89.6-268.8l51.2-38.4c67.2 89.6 102.4 195.2 102.4 307.2s-35.2 217.6-102.4 307.2zM153.6 716.8l-51.2 38.4c-67.2-89.6-102.4-195.2-102.4-307.2s35.2-217.6 102.4-307.2l51.2 38.4c-59.2 78.4-89.6 171.2-89.6 268.8s30.4 190.4 89.6 268.8z" />
<glyph unicode="&#xe630;" d="M396.8 292.8c0 0 0 0 0 0l86.4 86.4c0 0 0 0 0 0l44.8 44.8c0 0 0 0 0 0l480 480-44.8 44.8-475.2-473.6c-28.8 35.2-54.4 67.2-68.8 88-9.6 12.8-12.8 17.6-11.2 27.2 1.6 6.4 20.8 14.4 28.8 17.6s16 6.4 22.4 11.2l4.8 3.2c43.2 30.4 48 84.8 35.2 120-4.8 11.2-20.8 36.8-62.4 107.2-14.4 22.4-30.4 49.6-33.6 56-17.6 36.8-48 54.4-86.4 54.4-24 0-76.8-9.6-120-35.2l-1.6-1.6c-27.2-19.2-104-72-104-187.2 0-91.2 52.8-204.8 185.6-390.4v0c1.6-1.6 1.6-1.6 3.2-3.2 9.6-14.4 20.8-28.8 32-44.8l-307.2-307.2 44.8-44.8 299.2 299.2c0 0 0 0 0 0l48 48zM329.6 380.8c-123.2 172.8-174.4 278.4-174.4 355.2 0 80 51.2 116.8 76.8 134.4 30.4 17.6 70.4 25.6 86.4 25.6 14.4 0 20.8-4.8 28.8-19.2 3.2-6.4 12.8-22.4 36.8-60.8 19.2-32 52.8-86.4 57.6-96 3.2-9.6 6.4-32-11.2-44.8l-6.4-3.2c-1.6-1.6-8-3.2-11.2-4.8-4.8-1.6-9.6-3.2-14.4-6.4l-51.2 75.2c-20.8-9.6-56-25.6-64-64-9.6-38.4 32-81.6 43.2-96s22.4-27.2 43.2-52.8c16-20.8 43.2-56 73.6-94.4l-84.8-84.8c-9.6 11.2-19.2 24-28.8 36.8zM987.2 214.4l-3.2 3.2c-4.8 3.2-108.8 80-155.2 110.4-22.4 16-46.4 24-70.4 24-35.2 0-57.6-17.6-62.4-20.8l-6.4-6.4c-1.6-3.2-14.4-17.6-28.8-30.4-6.4-4.8-16-1.6-24 6.4-9.6 8-35.2 38.4-65.6 75.2l-44.8-44.8c30.4-36.8 57.6-67.2 67.2-76.8 32-30.4 80-33.6 108.8-8 17.6 14.4 30.4 30.4 36.8 38.4 3.2 1.6 9.6 4.8 19.2 4.8 11.2 0 22.4-4.8 35.2-12.8 44.8-30.4 152-108.8 152-108.8v0c3.2-3.2 17.6-19.2 1.6-48-4.8-9.6-12.8-22.4-20.8-33.6l-80 60.8c-30.4-41.6-81.6-86.4-164.8-86.4-59.2 0-136 57.6-243.2 184l-48-48c137.6-168 272-260.8 372.8-260.8 145.6 0 217.6 107.2 241.6 153.6 28.8 51.2 11.2 100.8-17.6 124.8z" />
<glyph unicode="&#xe631;" d="M896 214.4l-3.2 3.2c-4.8 3.2-108.8 80-155.2 110.4-22.4 16-46.4 24-70.4 24-35.2 0-57.6-17.6-62.4-20.8l-6.4-6.4c-1.6-3.2-14.4-17.6-28.8-30.4-6.4-4.8-16-1.6-24 6.4-24 20.8-169.6 195.2-217.6 262.4-9.6 12.8-12.8 17.6-11.2 27.2 1.6 6.4 20.8 14.4 28.8 17.6s16 6.4 22.4 11.2l4.8 3.2c43.2 30.4 48 84.8 35.2 120-4.8 11.2-20.8 36.8-62.4 107.2-14.4 22.4-30.4 49.6-33.6 56-17.6 36.8-48 54.4-86.4 54.4-24 0-76.8-9.6-120-35.2v-1.6c-28.8-19.2-105.6-72-105.6-187.2 0-91.2 52.8-204.8 185.6-390.4v0c1.6-1.6 1.6-1.6 3.2-3.2 14.4-20.8 30.4-43.2 48-67.2 160-216 318.4-339.2 435.2-339.2 145.6 0 217.6 107.2 241.6 153.6 28.8 51.2 11.2 100.8-17.6 124.8zM857.6 118.4c-4.8-9.6-12.8-22.4-20.8-33.6l-80 60.8c-30.4-41.6-81.6-86.4-164.8-86.4-76.8 0-185.6 99.2-352 321.6-124.8 172.8-176 278.4-176 355.2 0 80 51.2 116.8 76.8 134.4 30.4 17.6 70.4 25.6 86.4 25.6 14.4 0 20.8-4.8 28.8-19.2 3.2-6.4 12.8-22.4 36.8-60.8 19.2-32 52.8-86.4 57.6-96 3.2-9.6 6.4-32-11.2-44.8l-6.4-3.2c-1.6-1.6-8-3.2-11.2-4.8-4.8-1.6-9.6-3.2-14.4-6.4l-51.2 75.2c-20.8-9.6-56-25.6-64-64-9.6-38.4 32-81.6 43.2-96s22.4-27.2 43.2-52.8c46.4-62.4 193.6-241.6 224-270.4 32-30.4 80-33.6 108.8-8 17.6 14.4 30.4 30.4 36.8 38.4 3.2 1.6 9.6 4.8 19.2 4.8 11.2 0 22.4-4.8 35.2-12.8 44.8-30.4 152-108.8 152-108.8v0c3.2-3.2 17.6-19.2 3.2-48z" horiz-adv-x="928" />
<glyph unicode="&#xe632;" d="M576 672c-140.8 0-256-115.2-256-256s115.2-256 256-256c140.8 0 256 115.2 256 256s-115.2 256-256 256zM576 224c-105.6 0-192 86.4-192 192s86.4 192 192 192 192-86.4 192-192-86.4-192-192-192zM576 561.6c-80 0-144-65.6-144-145.6s65.6-145.6 144-145.6c80 0 144 65.6 144 145.6s-64 145.6-144 145.6zM932.8 704h-123.2l-57.6 80c-35.2 48-41.6 48-68.8 48h-216c-27.2 0-32 0-67.2-48l-59.2-80h-84.8v32c0 17.6-14.4 32-32 32h-96c-17.6 0-32-14.4-32-32v-32h-4.8c-49.6 0-91.2-41.6-91.2-91.2v-457.6c0-49.6 41.6-91.2 91.2-91.2h841.6c49.6 0 91.2 41.6 91.2 91.2v457.6c0 49.6-41.6 91.2-91.2 91.2zM960 155.2c0-14.4-12.8-27.2-27.2-27.2h-676.8v512h118.4l19.2 25.6 57.6 80c8 11.2 14.4 17.6 17.6 22.4h214.4c3.2-3.2 8-11.2 16-20.8l57.6-80 19.2-27.2h155.2c14.4 0 27.2-12.8 27.2-27.2v-457.6z" />
<glyph unicode="&#xe633;" d="M640 464h96v-96h-96v96zM688 656c-132.8 0-240-107.2-240-240s107.2-240 240-240 240 107.2 240 240c0 132.8-107.2 240-240 240zM800 304h-224v224h224v-224zM944 752h-656v64h-192v-64h-16c-44.8 0-80-35.2-80-80v-512c0-44.8 35.2-80 80-80h864c44.8 0 80 35.2 80 80v512c0 44.8-35.2 80-80 80zM960 160c0-9.6-6.4-16-16-16h-864c-9.6 0-16 6.4-16 16v112h288v64h-288v64h288v64h-288v64h288v64h-288v80c0 9.6 6.4 16 16 16h864c9.6 0 16-6.4 16-16v-512z" />
<glyph unicode="&#xe634;" d="M1024 187.2v132.8l-96 128v420.8c0 51.2-40 91.2-91.2 91.2h-649.6c-51.2 0-91.2-40-91.2-91.2v-420.8l-96-128v-132.8c0-49.6 41.6-91.2 91.2-91.2h43.2c-20.8-36.8-46.4-75.2-76.8-105.6l-54.4-54.4h1019.2l-54.4 54.4c-36.8 36.8-62.4 72-83.2 105.6h48c49.6 0 91.2 41.6 91.2 91.2zM836.8 896c16 0 27.2-12.8 27.2-27.2v-420.8h-256v96c38.4 28.8 64 75.2 64 128s-25.6 99.2-64 128v96h228.8zM512 768c52.8 0 96-43.2 96-96s-43.2-96-96-96-96 43.2-96 96c0 52.8 43.2 96 96 96zM160 868.8c0 14.4 11.2 27.2 27.2 27.2h228.8v-96c-38.4-28.8-64-75.2-64-128s25.6-99.2 64-128v-96h-256v420.8zM148.8 0c51.2 72 84.8 153.6 97.6 192h528c9.6-38.4 35.2-112 99.2-192h-724.8zM840 192h56v64h-768v-64h49.6c-3.2-9.6-8-20.8-12.8-32h-73.6c-14.4 0-27.2 12.8-27.2 27.2v132.8h896v-132.8c0-14.4-12.8-27.2-27.2-27.2h-80c-4.8 11.2-9.6 22.4-12.8 32zM304 576c0-26.51-21.49-48-48-48s-48 21.49-48 48c0 26.51 21.49 48 48 48s48-21.49 48-48zM688 848h128v-96h-128v96z" />
<glyph unicode="&#xe635;" d="M936 768h-8v16c0 27.2-20.8 48-48 48h-96c-27.2 0-48-20.8-48-48v-16h-648c-48 0-88-40-88-88v-528c0-48 40-88 88-88h848c48 0 88 40 88 88v528c0 48-40 88-88 88zM512 224c-88 0-160 72-160 160s72 160 160 160c88 0 160-72 160-160s-72-160-160-160zM328 256h-264v192h233.6c-6.4-20.8-9.6-41.6-9.6-64 0-48 14.4-91.2 40-128zM696 256c25.6 36.8 40 80 40 128 0 22.4-3.2 43.2-9.6 64h233.6v-192h-264zM88 704h848c12.8 0 24-11.2 24-24v-168h-264c-40 57.6-107.2 96-184 96-75.2 0-142.4-38.4-184-96h-264v168c0 12.8 11.2 24 24 24zM896 608c0-26.51-21.49-48-48-48s-48 21.49-48 48c0 26.51 21.49 48 48 48s48-21.49 48-48zM128 656h160v-80h-160v80zM512 480c-52.8 0-96-43.2-96-96s43.2-96 96-96 96 43.2 96 96-43.2 96-96 96z" />
<glyph unicode="&#xe636;" d="M936 512h-107.2l-52.8 52.8 64 104c14.4 16 24 36.8 24 59.2v144c0 48-40 88-88 88h-336c-48 0-88-40-88-88v-144c0-22.4 9.6-43.2 24-59.2l64-104-52.8-52.8h-131.2v16c0 27.2-20.8 48-48 48h-64c-27.2 0-48-20.8-48-48v-16h-8c-48 0-88-40-88-88v-400c0-48 40-88 88-88h848c48 0 88 40 88 88v400c0 48-40 88-88 88zM416 872c0 12.8 11.2 24 24 24h336c12.8 0 24-11.2 24-24v-144c0-12.8-11.2-24-24-24h-336c-12.8 0-24 11.2-24 24v144zM960 24c0-12.8-11.2-24-24-24h-848c-12.8 0-24 11.2-24 24v400c0 12.8 11.2 24 24 24h312c8 0 16 3.2 22.4 9.6l70.4 70.4h228.8l70.4-70.4c8-6.4 16-9.6 24-9.6h120c12.8 0 24-11.2 24-24v-400zM608 480c-123.2 0-224-100.8-224-224s100.8-224 224-224 224 100.8 224 224c0 123.2-100.8 224-224 224zM608 96c-88 0-160 72-160 160s72 160 160 160 160-72 160-160c0-88-72-160-160-160zM256 352c0-35.346-28.654-64-64-64s-64 28.654-64 64c0 35.346 28.654 64 64 64s64-28.654 64-64zM704 256c0-53.019-42.981-96-96-96s-96 42.981-96 96c0 53.019 42.981 96 96 96s96-42.981 96-96zM496 736h224c27.2 0 48 20.8 48 48v32c0 27.2-20.8 48-48 48h-224c-27.2 0-48-20.8-48-48v-32c0-27.2 20.8-48 48-48z" />
<glyph unicode="&#xe637;" d="M512 960c-281.6 0-512-230.4-512-512s230.4-512 512-512 512 230.4 512 512c0 281.6-230.4 512-512 512zM512 896c113.6 0 217.6-43.2 296-112l-342.4-342.4c-20.8 25.6-38.4 49.6-49.6 64-6.4 8-12.8 17.6-9.6 32 3.2 12.8 14.4 17.6 28.8 24 4.8 1.6 8 3.2 9.6 4.8l3.2 1.6c17.6 12.8 19.2 35.2 12.8 49.6-1.6 4.8-17.6 30.4-35.2 60.8-12.8 22.4-19.2 32-20.8 35.2-8 16-17.6 22.4-33.6 22.4-9.6 0-38.4-4.8-60.8-19.2v0c-16-11.2-54.4-38.4-54.4-96 0-51.2 32-116.8 107.2-222.4l1.6-1.6c8-11.2 16-20.8 24-32l-212.8-212.8c-68.8 78.4-112 182.4-112 296 0 246.4 201.6 448 448 448zM512 0c-110.4 0-211.2 40-289.6 107.2l630.4 630.4c67.2-78.4 107.2-179.2 107.2-289.6 0-246.4-201.6-448-448-448zM753.6 294.4c-19.2 14.4-67.2 49.6-89.6 65.6-11.2 6.4-20.8 11.2-32 11.2-12.8 0-22.4-6.4-24-8l-3.2-3.2c-3.2-3.2-9.6-12.8-19.2-20.8-11.2-9.6-27.2-8-40 4.8-1.6 1.6-1.6 1.6-3.2 3.2l-80-80c65.6-67.2 128-107.2 172.8-107.2 76.8 0 113.6 57.6 126.4 81.6 11.2 22.4 4.8 43.2-6.4 51.2l-1.6 1.6z" />
<glyph unicode="&#xe638;" d="M480 456h64v-80h-64v80zM1024 560c0 30.4-25.6 56-56 56h-64c-8 0-16-1.6-24-4.8l-46.4 102.4c-3.2 6.4-4.8 12.8-8 19.2-16 38.4-36.8 91.2-100.8 91.2h-425.6c-60.8 0-81.6-48-97.6-83.2-3.2-8-6.4-16-11.2-25.6l-46.4-105.6c-8 3.2-16 6.4-24 6.4h-64c-30.4 0-56-25.6-56-56 0-25.6 16-46.4 40-52.8-25.6-25.6-40-60.8-40-99.2v-224h64v-56c0-30.4 25.6-56 56-56h48c30.4 0 56 25.6 56 56v56h576v-56c0-30.4 25.6-56 56-56h48c30.4 0 56 25.6 56 56v56h64v224c0 38.4-14.4 73.6-40 99.2 24 6.4 40 27.2 40 52.8zM249.6 686.4c4.8 8 8 17.6 11.2 25.6h505.6c0-1.6 1.6-1.6 1.6-3.2 3.2-6.4 4.8-12.8 8-20.8l60.8-136h-648l60.8 134.4zM960 248h-896v48h128c17.6 0 32 14.4 32 32v48c0 17.6-14.4 32-32 32h-128c0 44.8 35.2 80 80 80h736c44.8 0 80-35.2 80-80h-128c-17.6 0-32-14.4-32-32v-48c0-17.6 14.4-32 32-32h128v-48z" />
<glyph unicode="&#xe639;" d="M993.6 480c20.8 46.4 30.4 96 30.4 145.6 0 184-136 334.4-302.4 334.4-78.4 0-153.6-33.6-209.6-94.4-56 60.8-131.2 94.4-209.6 94.4-166.4 0-302.4-150.4-302.4-334.4 0-51.2 9.6-99.2 30.4-144 12.8-32 30.4-65.6 49.6-97.6h-80v-64h294.4l43.2 67.2 94.4-121.6 78.4 166.4 108.8-260.8 88 147.2h316.8v64h-78.4c19.2 33.6 35.2 65.6 48 97.6zM670.4 384l-41.6-70.4-115.2 278.4-96-203.2-86.4 110.4-72-115.2h-100.8c-28.8 41.6-52.8 84.8-70.4 126.4-16 36.8-24 75.2-24 115.2 0 145.6 107.2 270.4 238.4 270.4 72 0 139.2-35.2 185.6-96l25.6-33.6c113.6 164.8 320 110.4 320-164.8 0-72-22.4-147.2-54.4-217.6h-108.8zM512 22.4c-41.6 33.6-152 123.2-252.8 235.2h-88c139.2-168 313.6-299.2 323.2-307.2l17.6-14.4 17.6 12.8c9.6 8 184 137.6 323.2 305.6-43.2 0-86.4 0-118.4 0-96-139.2-222.4-232-222.4-232z" />
<glyph unicode="&#xe63a;" d="M856 576h-160v288h-416v-718.4c-14.4 27.2-36.8 49.6-64 62.4v664c0 48-40 88-88 88h-72c-17.6 0-32-14.4-32-32s14.4-32 32-32h72c12.8 0 24-11.2 24-24v-648c-80 0-144-64-144-144s64-144 144-144c56 0 105.6 32 129.6 80h353.6l94.4-80 41.6 48-94.4 80h179.2v512zM344 800h288v-224h-288v224zM792 128h-448v384h448v-384zM632 256h96v-64h-96v64zM472 704h96v-64h-96v64z" horiz-adv-x="864" />
<glyph unicode="&#xe63b;" d="M416 836.8v-420.8h64v420.8l97.6-96 44.8 44.8-174.4 174.4-174.4-174.4 44.8-44.8zM992 864h-128c-14.4 0-27.2-9.6-30.4-24l-35.2-152-12.8-48h-241.6v-64h227.2l-3.2-11.2-6.4-28.8-43.2-184h-556.8l-73.6 224h264v64h-352l12.8-40c0 0 0-1.6 0-1.6l8-22.4 108.8-329.6c4.8-12.8 16-22.4 30.4-22.4h529.6l-19.2-80h-478.4c-17.6 0-32-14.4-32-32 0-14.4 11.2-27.2 24-30.4-4.8-12.8-8-27.2-8-41.6 0-57.6 46.4-104 104-104s104 46.4 104 104c0 14.4-3.2 27.2-8 40h224c-4.8-12.8-8-25.6-8-40 0-57.6 46.4-104 104-104s104 46.4 104 104c0 43.2-27.2 81.6-65.6 96l155.2 664h102.4c17.6 0 32 14.4 32 32s-14.4 32-32 32zM280 0c-22.4 0-40 17.6-40 40s17.6 40 40 40c22.4 0 40-17.6 40-40s-17.6-40-40-40zM736 40c0-22.4-17.6-40-40-40s-40 17.6-40 40c0 22.4 17.6 40 40 40s40-17.6 40-40z" />
<glyph unicode="&#xe63c;" d="M622.4 590.4l-44.8 44.8-97.6-96v420.8h-64v-420.8l-97.6 96-44.8-44.8 174.4-174.4zM992 864h-128c-14.4 0-27.2-9.6-30.4-24l-35.2-152-12.8-48h-113.6v-64h99.2l-3.2-11.2-6.4-28.8-43.2-184h-556.8l-73.6 224h136v64h-224l12.8-40c0 0 0-1.6 0-1.6l8-22.4 108.8-329.6c4.8-12.8 16-22.4 30.4-22.4h529.6l-19.2-80h-478.4c-17.6 0-32-14.4-32-32 0-14.4 11.2-27.2 24-30.4-4.8-12.8-8-27.2-8-41.6 0-57.6 46.4-104 104-104s104 46.4 104 104c0 14.4-3.2 27.2-8 40h224c-4.8-12.8-8-25.6-8-40 0-57.6 46.4-104 104-104s104 46.4 104 104c0 43.2-27.2 81.6-65.6 96l155.2 664h102.4c17.6 0 32 14.4 32 32s-14.4 32-32 32zM280 0c-22.4 0-40 17.6-40 40s17.6 40 40 40c22.4 0 40-17.6 40-40s-17.6-40-40-40zM736 40c0-22.4-17.6-40-40-40s-40 17.6-40 40c0 22.4 17.6 40 40 40s40-17.6 40-40z" />
<glyph unicode="&#xe63d;" d="M992 912h-128c-14.4 0-27.2-9.6-30.4-24l-48-200h-785.6l12.8-40c0 0 0-1.6 0-1.6l8-22.4 108.8-329.6c4.8-12.8 16-22.4 30.4-22.4h529.6l-19.2-80h-478.4c-17.6 0-32-14.4-32-32 0-14.4 11.2-27.2 24-30.4-4.8-12.8-8-27.2-8-41.6 0-57.6 46.4-104 104-104s104 46.4 104 104c0 14.4-3.2 27.2-8 40h224c-4.8-12.8-8-25.6-8-40 0-57.6 46.4-104 104-104s104 46.4 104 104c0 43.2-27.2 81.6-65.6 96l155.2 664h102.4c17.6 0 32 14.4 32 32s-14.4 32-32 32zM771.2 624l-30.4-128h-611.2l-43.2 128h684.8zM320 88c0-22.4-17.6-40-40-40s-40 17.6-40 40 17.6 40 40 40c22.4 0 40-17.6 40-40zM696 48c-22.4 0-40 17.6-40 40s17.6 40 40 40c22.4 0 40-17.6 40-40s-17.6-40-40-40z" />
<glyph unicode="&#xe63e;" d="M576 592h192v-64h-192v64zM416 128h192v-64h-192v64zM448 592h-160c-17.6 0-32-14.4-32-32v-16c0-17.6 14.4-32 32-32h160c17.6 0 32 14.4 32 32v16c0 17.6-14.4 32-32 32zM192 352h64v-64h-64v64zM320 352h64v-64h-64v64zM448 352h64v-64h-64v64zM896 440v264h-128v64h64c35.2 0 64 28.8 64 64v64c0 35.2-28.8 64-64 64h-192c-35.2 0-64-28.8-64-64v-64c0-35.2 28.8-64 64-64h64v-64h-288v144l-176-32v-112h-112v-264l-128-216v-288h1024v288l-128 216zM640 896h192v-64h-192v64zM192 640h640v-176h-640v176zM177.6 400h78.4v-48h64v48h64v-48h64v48h64v-48h64v-64h-64v-64h-64v64h-64v-64h-64v64h-64v-64h-64v64h-64v-64h-52.8l102.4 176zM960 0h-896v160h896v-160z" />
<glyph unicode="&#xe63f;" d="M0 936v-976h1024v976h-1024zM960 776c0 0 0 0 0 0-52.8 0-96 43.2-96 96h96v-96zM800 872c0-88 72-160 160-160 0 0 0 0 0 0v-192c0 0 0 0 0 0-88 0-160-72-160-160h-576c0 88-72 160-160 160v192c88 0 160 72 160 160h576zM160 872c0-52.8-43.2-96-96-96v96h96zM64 456c52.8 0 96-43.2 96-96h-96v96zM64 296h480l48-48h-528v48zM64 184h592l48-48h-640v48zM64 72h704l48-48h-752v48zM864 360c0 52.8 43.2 96 96 96 0 0 0 0 0 0v-96h-96zM512 424c105.6 0 192 86.4 192 192s-86.4 192-192 192-192-86.4-192-192c0-105.6 86.4-192 192-192zM496 726.4v33.6h32v-33.6c14.4-3.2 27.2-11.2 35.2-24l-25.6-19.2c-6.4 8-16 12.8-25.6 12.8-17.6 0-32-14.4-32-32s14.4-32 32-32c35.2 0 64-28.8 64-64 0-30.4-20.8-54.4-48-62.4v-35.2h-32v35.2c-12.8 3.2-24 11.2-33.6 20.8l25.6 20.8c6.4-8 16-11.2 25.6-11.2 17.6 0 32 14.4 32 32s-14.4 32-32 32c-35.2 0-64 28.8-64 64-1.6 30.4 19.2 54.4 46.4 62.4z" />
<glyph unicode="&#xe640;" d="M936 800h-848c-48 0-88-40-88-88v-528c0-48 40-88 88-88h848c48 0 88 40 88 88v528c0 48-40 88-88 88zM275.2 224h472l32-64h-536l32 64zM787.2 288h-723.2v320l128 128h640l128-128v-320h-172.8zM736 544c0 0 0 0 0 0h-448c-52.8 0-96-43.2-96-96s43.2-96 96-96v0h448c52.8 0 96 43.2 96 96s-43.2 96-96 96zM644.8 480c-3.2-9.6-6.4-20.8-6.4-32s1.6-22.4 4.8-32h-265.6c3.2 9.6 4.8 20.8 4.8 32s-1.6 22.4-4.8 32h267.2zM256 448c0 17.6 14.4 32 32 32s32-14.4 32-32-14.4-32-32-32c-17.6 0-32 14.4-32 32zM736 416c-17.6 0-32 14.4-32 32s14.4 32 32 32v0 0c17.6 0 32-14.4 32-32s-14.4-32-32-32zM224 672h576v-64h-576v64z" />
<glyph unicode="&#xe641;" d="M256 620.8l-73.6 73.6-44.8-44.8 118.4-118.4 246.4 246.4-44.8 44.8zM256 236.8l-73.6 73.6-44.8-44.8 118.4-118.4 246.4 246.4-44.8 44.8zM544 736h352v-64h-352v64zM544 608h192v-64h-192v64zM544 384h288v-64h-288v64zM936 960h-848c-48 0-88-40-88-88v-848c0-48 40-88 88-88h628.8l307.2 307.2v628.8c0 48-40 88-88 88zM64 24v848c0 12.8 11.2 24 24 24h848c12.8 0 24-11.2 24-24v-584h-288v-32h-128v-64h128v-192h-584c-12.8 0-24 11.2-24 24z" />
<glyph unicode="&#xe642;" d="M782.4 353.6c0-26.51-21.49-48-48-48s-48 21.49-48 48c0 26.51 21.49 48 48 48s48-21.49 48-48zM942.4 403.2c-12.8 17.6-20.8 36.8-24 57.6-6.4 40-32 65.6-72 72-20.8 3.2-40 11.2-57.6 24-6.4 4.8-12.8 8-20.8 11.2v136l-256 256h-422.4c-49.6 0-89.6-40-89.6-91.2v-745.6c0-51.2 40-91.2 89.6-91.2h518.4v-96l128 128 128-128v238.4c30.4 9.6 49.6 33.6 54.4 67.2 3.2 20.8 11.2 40 24 57.6 24 35.2 24 70.4 0 104zM89.6 96c-14.4 0-25.6 11.2-25.6 27.2v745.6c0 16 11.2 27.2 25.6 27.2h390.4v-224h224v-104c-6.4-3.2-12.8-6.4-17.6-11.2-17.6-12.8-36.8-20.8-57.6-24-40-6.4-65.6-32-72-72-3.2-20.8-11.2-40-24-57.6-24-33.6-24-68.8 0-102.4 12.8-17.6 20.8-36.8 24-57.6 4.8-33.6 24-56 52.8-67.2v-80h-520zM891.2 339.2c-19.2-25.6-30.4-54.4-35.2-86.4-1.6-12.8-6.4-17.6-19.2-19.2-32-4.8-60.8-17.6-86.4-35.2-9.6-8-17.6-8-27.2 0-25.6 19.2-54.4 30.4-86.4 35.2-12.8 1.6-17.6 6.4-19.2 19.2-4.8 32-17.6 60.8-35.2 86.4-8 11.2-8 16 0 27.2 19.2 25.6 30.4 54.4 35.2 86.4 1.6 12.8 6.4 17.6 19.2 19.2 32 4.8 60.8 17.6 86.4 35.2 4.8 3.2 9.6 6.4 12.8 6.4s8-1.6 12.8-6.4c25.6-19.2 54.4-30.4 86.4-35.2 12.8-1.6 17.6-6.4 19.2-19.2 4.8-32 17.6-60.8 35.2-86.4 8-11.2 8-17.6 1.6-27.2z" horiz-adv-x="960" />
<glyph unicode="&#xe643;" d="M430.4 576h160v-64h-160v64zM1024 320c0 75.2-51.2 137.6-120 155.2 14.4 121.6-19.2 238.4-92.8 321.6-73.6 84.8-180.8 131.2-304 131.2s-232-46.4-305.6-131.2c-73.6-84.8-107.2-203.2-91.2-324.8-64-20.8-110.4-81.6-110.4-152 0-59.2 32-110.4 80-137.6v-59.2c0-49.6 40-91.2 91.2-91.2h20.8v-96h64v96h512v-96h64v96h20.8c49.6 0 91.2 41.6 91.2 91.2v59.2c48 27.2 80 78.4 80 137.6zM249.6 755.2c62.4 70.4 150.4 108.8 257.6 108.8 9.6 0 19.2 0 28.8-1.6 208-22.4 227.2-342.4 180.8-481.6-1.6-3.2-3.2-8-3.2-11.2 0-1.6 0-1.6-1.6-3.2 0 0 0 0 0 0s0 0 0 0c-54.4 11.2-120 17.6-200 17.6-78.4 0-144-6.4-198.4-17.6-19.2 60.8-73.6 107.2-139.2 112-14.4 105.6 14.4 204.8 75.2 276.8zM160 416c41.6 0 78.4-27.2 91.2-65.6-83.2-25.6-131.2-64-153.6-104-20.8 19.2-33.6 44.8-33.6 73.6 0 52.8 43.2 96 96 96zM880 123.2c0-14.4-12.8-27.2-27.2-27.2h-681.6c-14.4 0-27.2 12.8-27.2 27.2v64c0 52.8 97.6 132.8 368 132.8s368-80 368-132.8v-64zM926.4 248c-22.4 38.4-70.4 76.8-153.6 104 12.8 38.4 48 65.6 91.2 65.6 52.8 0 96-43.2 96-96 0-30.4-12.8-56-33.6-73.6z" />
<glyph unicode="&#xe644;" d="M736 321.6c0 1.6 0 1.6 0 3.2s0 1.6 0 3.2 0 1.6-1.6 3.2c0 1.6 0 1.6-1.6 3.2 0 1.6-1.6 1.6-1.6 3.2s-1.6 1.6-1.6 3.2c0 0 0 1.6-1.6 1.6l-88 100.8v516.8h-64v-64h-416v64h-64v-516.8l-88-102.4c0 0 0-1.6-1.6-1.6 0-1.6-1.6-1.6-1.6-3.2s-1.6-1.6-1.6-3.2c0-1.6-1.6-1.6-1.6-3.2s0-1.6-1.6-3.2c0-1.6 0-1.6 0-3.2s0-1.6 0-3.2c0 0 0-1.6 0-1.6v-382.4h64v288h32v-128h64v128h416v-128h64v128h32v-288h64v384c0 0 0 1.6 0 1.6zM593.6 400l41.6-48h-534.4l41.6 48h451.2zM576 832v-96h-416v96h416zM576 672v-208h-416v208h416z" horiz-adv-x="736" />
<glyph unicode="&#xe645;" d="M544 336h352v-64h-352v64zM384 208h512v-64h-512v64zM632 624l78.4 78.4c11.2 11.2 17.6 25.6 17.6 40 0 16-6.4 30.4-17.6 40l-48 49.6c-9.6 9.6-24 16-40 16s-30.4-6.4-40-17.6l-3.2-3.2-43.2 43.2c-12.8 12.8-33.6 12.8-44.8 0l-180.8-177.6 44.8-44.8 156.8 155.2 20.8-20.8-158.4-158.4h-374.4v-608h1024v608h-392zM192 345.6l3.2 11.2 20.8 20.8 38.4-38.4-20.8-20.8-59.2-25.6 17.6 52.8zM616 774.4l6.4 6.4 38.4-38.4-120-118.4h-1.6l-36.8 36.8 113.6 113.6zM310.4 560l-160-160c-6.4-6.4-11.2-14.4-12.8-20.8v0l-73.6-203.2v384h246.4zM960 80h-896v96l193.6 81.6c1.6 0 3.2 1.6 4.8 3.2l3.2 1.6c4.8 3.2 8 4.8 12.8 9.6l289.6 288h392v-480z" />
<glyph unicode="&#xe646;" d="M928 438.4v286.4c0 49.6-41.6 91.2-91.2 91.2h-745.6c-49.6 0-91.2-41.6-91.2-91.2v-457.6c0-49.6 41.6-91.2 91.2-91.2h574.4c33.6-57.6 94.4-96 166.4-96 105.6 0 192 86.4 192 192 0 70.4-38.4 132.8-96 166.4zM816 752l-352-308.8-352 308.8h704zM640 272c0-11.2 1.6-20.8 3.2-32h-552c-14.4 0-27.2 12.8-27.2 27.2v441.6l379.2-332.8c6.4-4.8 12.8-8 20.8-8s14.4 3.2 20.8 8l379.2 332.8v-248c-11.2 1.6-20.8 3.2-32 3.2-105.6 0-192-86.4-192-192zM817.6 156.8l-99.2 99.2 33.6 33.6 62.4-62.4 112 139.2 36.8-30.4-145.6-179.2z" />
<glyph unicode="&#xe647;" d="M832 24c0-12.8-11.2-24-24-24h-720c-12.8 0-24 11.2-24 24v720c0 12.8 11.2 24 24 24h684.8l-360-465.6-172.8 188.8-94.4-86.4 275.2-300.8 603.2 777.6-100.8 78.4-100.8-129.6c-4.8 1.6-9.6 1.6-14.4 1.6h-720c-48 0-88-40-88-88v-720c0-48 40-88 88-88h720c48 0 88 40 88 88v604.8l-64-83.2v-521.6z" />
<glyph unicode="&#xe648;" d="M830.4 352c0-35.346-28.654-64-64-64s-64 28.654-64 64c0 35.346 28.654 64 64 64s64-28.654 64-64zM672 192c0-53.019-42.981-96-96-96s-96 42.981-96 96c0 53.019 42.981 96 96 96s96-42.981 96-96zM480 400c0-26.51-21.49-48-48-48s-48 21.49-48 48c0 26.51 21.49 48 48 48s48-21.49 48-48zM272 432c0-44.183-35.817-80-80-80s-80 35.817-80 80c0 44.183 35.817 80 80 80s80-35.817 80-80zM320 240c0-26.51-21.49-48-48-48s-48 21.49-48 48c0 26.51 21.49 48 48 48s48-21.49 48-48zM960 256c6.4 0 14.4-1.6 20.8-3.2 9.6-3.2 20.8-1.6 28.8 4.8s12.8 16 12.8 25.6v180.8c0 9.6-3.2 17.6-11.2 24-3.2 3.2-353.6 316.8-528 464-4.8 6.4-12.8 8-22.4 8-420.8-33.6-459.2-345.6-459.2-348.8 0-1.6 0-1.6 0-3.2v-512c0-16 11.2-30.4 27.2-32l960-128c1.6 0 3.2 0 4.8 0 8 0 16 3.2 20.8 8 6.4 6.4 11.2 14.4 11.2 24v132.8c0 9.6-4.8 20.8-12.8 25.6-8 6.4-19.2 8-28.8 4.8-9.6-1.6-17.6-3.2-24-3.2-35.2 0-64 28.8-64 64s28.8 64 64 64zM452.8 894.4c123.2-105.6 326.4-284.8 436.8-384l-817.6 124.8c20.8 67.2 99.2 232 380.8 259.2zM960 64v-59.2l-896 120v446.4l896-134.4v-116.8c-70.4 0-128-57.6-128-128s57.6-128 128-128z" />
<glyph unicode="&#xe649;" d="M814.4 704l40 40 19.2-19.2c6.4-6.4 14.4-9.6 22.4-9.6s16 3.2 22.4 9.6c12.8 12.8 12.8 32 0 44.8l-86.4 86.4c-12.8 12.8-32 12.8-44.8 0s-12.8-32 0-44.8l20.8-20.8-40-40c-59.2 51.2-129.6 88-209.6 104 0 3.2 0 6.4 0 9.6 0 52.8-43.2 96-96 96s-96-43.2-96-96c0-3.2 0-6.4 0-9.6-208-44.8-366.4-230.4-366.4-454.4 0-256 208-464 464-464s464 208 464 464c0 116.8-43.2 222.4-113.6 304zM432 864c0 17.6 14.4 32 32 32s32-14.4 32-32c0 0 0 0 0-1.6-11.2 1.6-20.8 1.6-32 1.6s-20.8 0-32 0c0 0 0 0 0 0zM464 0c-220.8 0-400 179.2-400 400s179.2 400 400 400c220.8 0 400-179.2 400-400s-179.2-400-400-400zM796.8 430.4c-16 171.2-158.4 304-332.8 305.6v-187.2c70.4 0 128-51.2 142.4-118.4h-67.2c-11.2 30.4-41.6 52.8-75.2 52.8s-64-22.4-75.2-52.8h-68.8v-64h70.4c12.8-28.8 41.6-48 73.6-48s60.8 19.2 73.6 48h262.4v64h-3.2z" horiz-adv-x="928" />
<glyph unicode="&#xe64a;" d="M942.4 822.4c-108.8 108.8-286.4 108.8-395.2 0l-148.8-148.8-340.8-339.2c-76.8-78.4-76.8-206.4 0-283.2 38.4-38.4 89.6-59.2 140.8-59.2s102.4 19.2 140.8 59.2l339.2 339.2c0 0 0 0 0 0l148.8 148.8c24 22.4 36.8 52.8 36.8 84.8s-12.8 62.4-35.2 84.8c-22.4 22.4-52.8 35.2-84.8 35.2s-62.4-12.8-84.8-35.2l-348.8-348.8c-16-16-16-41.6 0-56 16-16 41.6-16 56 0l348.8 348.8c14.4 14.4 41.6 14.4 56 0 16-16 16-41.6 0-56l-337.6-340.8c0 0 0 0 0 0l-148.8-148.8c-22.4-22.4-52.8-35.2-84.8-35.2s-62.4 12.8-84.8 35.2c-22.4 22.4-35.2 52.8-35.2 84.8s12.8 62.4 35.2 84.8l91.2 91.2c0 0 0 0 0 0l398.4 398.4c78.4 78.4 204.8 78.4 283.2 0 38.4-38.4 59.2-88 59.2-140.8s-20.8-104-59.2-140.8l-352-352c-16-16-16-41.6 0-56 8-8 17.6-11.2 28.8-11.2 9.6 0 20.8 3.2 28.8 11.2l352 352c49.6 49.6 78.4 120 78.4 195.2s-28.8 145.6-81.6 198.4z" />
<glyph unicode="&#xe64b;" d="M928 438.4v286.4c0 49.6-41.6 91.2-91.2 91.2h-745.6c-49.6 0-91.2-41.6-91.2-91.2v-457.6c0-49.6 41.6-91.2 91.2-91.2h574.4c33.6-57.6 94.4-96 166.4-96 105.6 0 192 86.4 192 192 0 70.4-38.4 132.8-96 166.4zM816 752l-352-308.8-352 308.8h704zM640 272c0-11.2 1.6-20.8 3.2-32h-552c-14.4 0-27.2 12.8-27.2 27.2v441.6l379.2-332.8c6.4-4.8 12.8-8 20.8-8s14.4 3.2 20.8 8l379.2 332.8v-248c-11.2 1.6-20.8 3.2-32 3.2-105.6 0-192-86.4-192-192zM910.4 158.4l-78.4 80-78.4-80-33.6 33.6 78.4 80-78.4 80 33.6 33.6 78.4-78.4 78.4 78.4 33.6-33.6-78.4-80 78.4-80-33.6-33.6z" />
<glyph unicode="&#xe64c;" d="M928 832h-440c62.4-12.8 118.4-33.6 166.4-64h273.6c17.6 0 32-14.4 32-32v-640c0-17.6-14.4-32-32-32h-704c-17.6 0-32 14.4-32 32v404.8l108.8-78.4c9.6-6.4 22.4-8 33.6-1.6 11.2 4.8 17.6 16 17.6 28.8v97.6c112 0 249.6-3.2 360-132.8 6.4-8 14.4-11.2 24-11.2 4.8 0 9.6 1.6 12.8 3.2 12.8 6.4 20.8 19.2 17.6 33.6-33.6 212.8-179.2 326.4-414.4 328v96c0 11.2-6.4 22.4-17.6 28.8-11.2 4.8-24 4.8-33.6-1.6l-288-209.6c-8-6.4-12.8-16-12.8-25.6s4.8-20.8 12.8-25.6l115.2-84.8v-449.6c0-52.8 43.2-96 96-96h704c52.8 0 96 43.2 96 96v640c0 52.8-43.2 96-96 96z" />
<glyph unicode="&#xe64d;" d="M352 864h64v-160h-64v160zM0 512h160v-64h-160v64zM133.141 777.007l113.136-113.136-45.254-45.254-113.136 113.136 45.254 45.254zM133.296 187.171l-45.254 45.254 113.136 113.136 45.254-45.254-113.136-113.136zM631.28 776.671l45.254-45.254-113.136-113.136-45.254 45.254 113.136 113.136zM888 352c-11.2 104-97.6 184-203.2 184-46.4 0-91.2-16-126.4-43.2-4.8 91.2-81.6 163.2-174.4 163.2-97.6 0-176-78.4-176-176 0-70.4 41.6-131.2 100.8-158.4-33.6-30.4-52.8-75.2-52.8-121.6 0-89.6 68.8-163.2 158.4-166.4h449.6c88 0 158.4 72 158.4 160 1.6 80-57.6 147.2-134.4 158.4zM865.6 96h-449.6c-54.4 3.2-96 48-96 102.4 0 40 20.8 75.2 56 91.2l28.8 14.4 4.8 32c3.2 24 25.6 43.2 49.6 43.2 8 0 14.4-1.6 20.8-4.8l52.8-25.6 30.4 51.2c25.6 43.2 70.4 70.4 120 70.4 72 0 131.2-54.4 139.2-126.4l4.8-49.6 49.6-8c46.4-6.4 81.6-48 81.6-96 1.6-51.2-41.6-94.4-92.8-94.4z" />
<glyph unicode="&#xe64e;" d="M894.4 640c-43.2 12.8-84.8 14.4-131.2 6.4 22.4 44.8 33.6 88 33.6 136 1.6 97.6-78.4 177.6-177.6 177.6-40 0-76.8-12.8-108.8-36.8 0 0 0 0 0 0-30.4 24-68.8 36.8-107.2 36.8-97.6 0-177.6-80-177.6-177.6 0-48 11.2-91.2 33.6-136-44.8 8-88 6.4-129.6-6.4-94.4-27.2-148.8-126.4-121.6-220.8 11.2-38.4 33.6-70.4 65.6-94.4 0 0 0 0 0 0-14.4-36.8-16-76.8-6.4-113.6 22.4-76.8 92.8-129.6 171.2-129.6 16 0 33.6 1.6 49.6 6.4 78.4 22.4 139.2 73.6 193.6 161.6v-121.6c0-102.4 80-185.6 180.8-192 1.6 0 3.2 0 4.8 0h4.8c17.6 0 32 14.4 32 32s-14.4 32-32 32c-70.4 0-128 57.6-128 128v121.6c54.4-88 116.8-139.2 193.6-161.6 16-4.8 32-6.4 49.6-6.4v0c78.4 0 148.8 52.8 171.2 129.6 11.2 36.8 8 78.4-6.4 113.6 0 0 0 0 0 0 32 24 54.4 56 65.6 94.4 27.2 94.4-28.8 193.6-123.2 220.8zM955.2 436.8c-6.4-24-22.4-44.8-41.6-60.8-22.4-16-52.8-28.8-89.6-16 0 0 0 0 0 0l-296 100.8c-4.8 3.2-11.2 4.8-16 4.8-17.6 0-32-14.4-32-32v-30.4c0-8-4.8-22.4-16-48-56-118.4-116.8-180.8-195.2-203.2-9.6-3.2-20.8-4.8-32-4.8-51.2 0-96 33.6-108.8 83.2-6.4 25.6-6.4 51.2 4.8 75.2 0 1.6 1.6 1.6 1.6 3.2 3.2 11.2 4.8 24 1.6 35.2-3.2 12.8-11.2 24-20.8 30.4 0 0-1.6 1.6-1.6 1.6-20.8 14.4-35.2 36.8-43.2 60.8-17.6 60.8 17.6 123.2 78.4 140.8 56 16 110.4 9.6 177.6-17.6 12.8-6.4 28.8-1.6 38.4 11.2 8 11.2 8 28.8-1.6 40-49.6 57.6-72 112-72 171.2 0 62.4 51.2 113.6 113.6 113.6 25.6 0 51.2-8 70.4-25.6 0 0 0 0 1.6 0 16-12.8 36.8-43.2 36.8-70.4v-256c0-28.8 24-52.8 72-32 35.2 14.4 75.2 32 108.8 44.8 1.6 0 4.8 1.6 6.4 1.6 6.4 3.2 11.2 4.8 17.6 6.4 8 3.2 14.4 4.8 20.8 6.4 3.2 1.6 6.4 1.6 8 3.2 48 14.4 89.6 14.4 132.8 1.6 57.6-16 92.8-78.4 75.2-139.2z" />
<glyph unicode="&#xe64f;" d="M1024 353.6c-3.2 89.6-195.2 123.2-336 126.4v353.6c-3.2 92.8-211.2 126.4-352 126.4-160 0-332.8-40-336-126.4v0-580.8c0-84.8 172.8-124.8 336-126.4v-65.6c0-86.4 177.6-126.4 344-126.4s344 41.6 344 128v291.2zM400 272c65.6-33.6 171.2-48 272-48 38.4 0 83.2 3.2 128 8v-80c-36.8-4.8-80-8-128-8-171.2 0-268.8 44.8-272 64v64zM960 352c-9.6-19.2-115.2-64-288-64-171.2 0-268.8 44.8-272 64v0c3.2 19.2 100.8 64 272 64 172.8 0 278.4-44.8 288-64zM64 832c3.2 19.2 100.8 64 272 64 172.8 0 278.4-44.8 288-64-9.6-19.2-115.2-64-288-64-171.2 0-268.8 44.8-272 64v0zM64 752c65.6-33.6 171.2-48 272-48 44.8 0 96 3.2 144 11.2v-80c-40-6.4-89.6-11.2-144-11.2-171.2 0-268.8 44.8-272 64v64zM64 608c65.6-33.6 171.2-48 272-48 44.8 0 96 3.2 144 11.2v-80c-40-6.4-89.6-11.2-144-11.2-171.2 0-268.8 44.8-272 64v64zM64 464c65.6-33.6 171.2-48 272-48 12.8 0 25.6 0 40 1.6-24-17.6-38.4-38.4-40-64v0-17.6c-171.2 0-268.8 44.8-272 64v64zM64 254.4v65.6c65.6-33.6 171.2-48 272-48v-80c-176 1.6-267.2 46.4-272 62.4zM400 62.4v65.6c65.6-33.6 171.2-48 272-48 38.4 0 83.2 3.2 128 8v-81.6c-33.6-4.8-73.6-8-118.4-8-182.4 1.6-276.8 46.4-281.6 64z" />
<glyph unicode="&#xe650;" d="M1024 832c0 70.4-57.6 128-128 128s-128-57.6-128-128c0-12.8 1.6-24 4.8-36.8-80 64-182.4 100.8-292.8 100.8-264 0-480-216-480-480s216-480 480-480c264 0 480 216 480 480 0 110.4-36.8 212.8-100.8 292.8 11.2-3.2 24-4.8 36.8-4.8 70.4 0 128 57.6 128 128zM896 896c35.2 0 64-28.8 64-64s-28.8-64-64-64c-6.4 0-11.2 1.6-16 1.6l38.4 38.4c12.8 12.8 12.8 32 0 44.8s-32 12.8-44.8 0l-40-36.8c0 4.8-1.6 9.6-1.6 16 0 35.2 28.8 64 64 64zM480 0c-228.8 0-416 187.2-416 416s187.2 416 416 416c228.8 0 416-187.2 416-416s-187.2-416-416-416zM224 160l348.8 163.2-185.6 185.6zM387.2 508.8l185.6-185.6 163.2 348.8-348.8-163.2zM558.4 448l-6.4-12.8-28.8-64-88 88 139.2 64 25.6 11.2-41.6-86.4zM313.6 630.4c0-26.51-21.49-48-48-48s-48 21.49-48 48c0 26.51 21.49 48 48 48s48-21.49 48-48zM742.4 201.6c0-26.51-21.49-48-48-48s-48 21.49-48 48c0 26.51 21.49 48 48 48s48-21.49 48-48z" />
<glyph unicode="&#xe651;" d="M936 960h-848c-48 0-88-40-88-88v-848c0-48 40-88 88-88h848c48 0 88 40 88 88v848c0 48-40 88-88 88zM960 24c0-12.8-11.2-24-24-24h-848c-12.8 0-24 11.2-24 24v848c0 12.8 11.2 24 24 24h848c12.8 0 24-11.2 24-24v-848zM320 704h-64v-64h-64v-96h64v-352h64v352h64v96h-64zM544 704h-64v-352h-64v-96h64v-64h64v64h64v96h-64zM768 704h-64v-192h-64v-96h64v-224h64v224h64v96h-64z" />
<glyph unicode="&#xe652;" d="M936 960h-848c-48 0-88-40-88-88v-848c0-48 40-88 88-88h848c48 0 88 40 88 88v848c0 48-40 88-88 88zM960 24c0-12.8-11.2-24-24-24h-848c-12.8 0-24 11.2-24 24v848c0 12.8 11.2 24 24 24h848c12.8 0 24-11.2 24-24v-848zM320 800h-64v-64h-64v-96h64v-352h64v352h64v96h-64zM544 800h-64v-352h-64v-96h64v-64h64v64h64v96h-64zM768 800h-64v-192h-64v-96h64v-224h64v224h64v96h-64zM352 158.4c0-35.346-28.654-64-64-64s-64 28.654-64 64c0 35.346 28.654 64 64 64s64-28.654 64-64zM576 160c0-35.346-28.654-64-64-64s-64 28.654-64 64c0 35.346 28.654 64 64 64s64-28.654 64-64zM800 160c0-35.346-28.654-64-64-64s-64 28.654-64 64c0 35.346 28.654 64 64 64s64-28.654 64-64z" />
<glyph unicode="&#xe653;" d="M856 233.6c-24 6.4-22.4 41.6-22.4 41.6 0 1.6 0 3.2 0 6.4 0 17.6 1.6 32 6.4 40 6.4 12.8 12.8 35.2 16 54.4 8 8 17.6 25.6 24 56 4.8 27.2 3.2 38.4 0 48 0 1.6 0 1.6-1.6 3.2-1.6 6.4 0 40 4.8 67.2 3.2 17.6-1.6 56-25.6 88-16 20.8-46.4 44.8-100.8 48h-19.2c-54.4-3.2-84.8-28.8-100.8-48-25.6-32-28.8-70.4-25.6-88 4.8-27.2 6.4-60.8 4.8-67.2 0-1.6 0-1.6-1.6-3.2-3.2-9.6-6.4-19.2 0-48 6.4-32 16-48 24-56 3.2-19.2 9.6-41.6 16-54.4 4.8-9.6 6.4-22.4 6.4-40 0-1.6 0-3.2 0-6.4 0 0 0-8-1.6-17.6-33.6 28.8-83.2 54.4-161.6 78.4-1.6 1.6-4.8 12.8-4.8 17.6v9.6c0 16 1.6 28.8 4.8 35.2 6.4 14.4 16 40 20.8 65.6 12.8 17.6 22.4 43.2 28.8 73.6 8 36.8 4.8 56-1.6 73.6 0 9.6 1.6 41.6 6.4 67.2 6.4 32-3.2 88-36.8 131.2-22.4 28.8-65.6 65.6-142.4 70.4h-28.8c-76.8-4.8-120-40-142.4-70.4-33.6-43.2-43.2-97.6-36.8-131.2 4.8-25.6 6.4-57.6 6.4-67.2-6.4-17.6-9.6-36.8-1.6-73.6 6.4-30.4 16-56 28.8-73.6 4.8-25.6 12.8-51.2 20.8-65.6 3.2-6.4 4.8-19.2 4.8-35.2v-8c0-6.4-1.6-17.6-3.2-19.2-211.2-64-224-144-222.4-259.2 0-9.6 0-19.2 0-30.4v-32h718.4c27.2 0 51.2 0 68.8 0 12.8 0 20.8 0 20.8 0h3.2c0 0 8 0 20.8 0 36.8 0-3.2 0 60.8 0 43.2 0 78.4 0 84.8 0h48c-1.6 62.4 22.4 161.6-168 219.2zM240 276.8c43.2 12.8 49.6 62.4 48 81.6v6.4c0 27.2-3.2 46.4-11.2 62.4-6.4 12.8-12.8 35.2-16 56l-1.6 9.6-6.4 8c-3.2 4.8-14.4 19.2-20.8 52.8-4.8 27.2-3.2 33.6 0 40 0 1.6 1.6 3.2 1.6 4.8v1.6c3.2 16-1.6 65.6-6.4 92.8-1.6 12.8 0 49.6 24 80 14.4 19.2 43.2 41.6 94.4 44.8h22.4c52.8-3.2 80-27.2 94.4-44.8 24-30.4 27.2-67.2 24-80-4.8-27.2-9.6-75.2-6.4-92.8v-1.6c0-1.6 1.6-3.2 1.6-6.4 1.6-4.8 4.8-11.2 0-38.4-6.4-33.6-17.6-48-20.8-52.8l-6.4-8-1.6-9.6c-3.2-19.2-9.6-43.2-16-56-8-16-11.2-35.2-11.2-62.4v-6.4c-1.6-19.2 6.4-68.8 48-81.6 179.2-54.4 179.2-108.8 176-196.8h-585.6c-3.2 88-3.2 140.8 176 196.8z" />
<glyph unicode="&#xe654;" d="M574.4 380.8c-12.8 4.8-12.8 24-12.8 24 0 1.6 0 1.6 0 3.2 0 11.2 1.6 17.6 3.2 24 3.2 8 8 19.2 9.6 30.4 4.8 4.8 9.6 14.4 12.8 32 3.2 16 1.6 22.4 0 27.2 0 0 0 1.6 0 1.6 0 3.2 0 22.4 3.2 38.4 1.6 9.6 0 32-14.4 51.2-9.6 11.2-25.6 25.6-57.6 27.2h-12.8c-30.4-1.6-48-16-57.6-27.2-14.4-17.6-16-40-14.4-51.2 3.2-14.4 3.2-35.2 3.2-38.4 0 0 0-1.6 0-1.6-1.6-4.8-3.2-11.2 0-27.2 3.2-17.6 9.6-27.2 12.8-32 1.6-11.2 6.4-24 9.6-30.4 3.2-4.8 3.2-12.8 3.2-24 0-1.6 0-1.6 0-3.2 0 0 1.6-20.8-12.8-24-107.2-33.6-129.6-73.6-129.6-124.8h25.6c4.8 0 24 0 48 0 36.8 0 83.2 0 105.6 0 8 0 11.2 0 11.2 0h3.2c0 0 4.8 0 11.2 0 20.8 0 68.8 0 105.6 0 24 0 44.8 0 48 0h25.6c0 51.2-22.4 91.2-129.6 124.8zM804.8 960h-649.6c-49.6 0-91.2-41.6-91.2-91.2v-100.8h-32c-17.6 0-32-14.4-32-32s14.4-32 32-32h32v-128h-32c-17.6 0-32-14.4-32-32s14.4-32 32-32h32v-128h-32c-17.6 0-32-14.4-32-32s14.4-32 32-32h32v-128h-32c-17.6 0-32-14.4-32-32s14.4-32 32-32h32v-100.8c0-49.6 41.6-91.2 91.2-91.2h648c49.6 0 91.2 41.6 91.2 91.2v841.6c1.6 49.6-40 91.2-89.6 91.2zM832 81.6v-54.4c0-14.4-12.8-27.2-27.2-27.2h-649.6c-14.4 0-27.2 12.8-27.2 27.2v100.8h48v-16h64v96h-64v-16h-48v128h48v-16h64v96h-64v-16h-48v128h48v-16h64v96h-64v-16h-48v128h48v-16h64v96h-64v-16h-48v100.8c0 14.4 12.8 27.2 27.2 27.2h648c16 0 28.8-12.8 28.8-27.2v-787.2z" horiz-adv-x="896" />
<glyph unicode="&#xe655;" d="M640 864c-12.8 0-25.6-1.6-38.4-3.2-40 60.8-110.4 99.2-185.6 99.2s-145.6-38.4-185.6-99.2c-12.8 1.6-25.6 3.2-38.4 3.2-105.6 0-192-86.4-192-192 0-94.4 68.8-174.4 160-188.8v-459.2c0-48 40-88 88-88h336c48 0 88 40 88 88v459.2c91.2 16 160 94.4 160 188.8 0 105.6-86.4 192-192 192zM64 672c0 70.4 57.6 128 128 128 14.4 0 28.8-3.2 41.6-8l27.2-9.6 12.8 25.6c27.2 54.4 81.6 88 142.4 88s115.2-33.6 142.4-88l12.8-25.6 8 3.2c19.2 1.6 92.8-1.6 92.8-113.6 0-128-144-128-144-128v-384h-80v224h-64v-224h-64v160h-64v-160h-32v384h-32c-70.4 0-128 57.6-128 128zM584 0h-336c-12.8 0-24 11.2-24 24v72h384v-72c0-12.8-11.2-24-24-24z" horiz-adv-x="832" />
<glyph unicode="&#xe656;" d="M704 374.4v329.6l-256 256h-356.8c-51.2 0-91.2-40-91.2-91.2v-745.6c0-49.6 40-91.2 91.2-91.2h366.4c40-57.6 107.2-96 184-96 123.2 0 224 100.8 224 224-1.6 100.8-68.8 187.2-161.6 214.4zM507.2 70.4c-17.6 25.6-27.2 56-27.2 89.6 0 88 72 160 160 160 33.6 0 64-9.6 89.6-27.2l-222.4-222.4zM91.2 96c-16 0-27.2 11.2-27.2 27.2v745.6c0 16 11.2 27.2 27.2 27.2h324.8v-224h224v-288c-123.2 0-224-100.8-224-224 0-22.4 3.2-43.2 9.6-64h-334.4zM640 0c-32 0-60.8 9.6-86.4 25.6l220.8 220.8c16-25.6 25.6-54.4 25.6-86.4 0-88-72-160-160-160z" horiz-adv-x="864" />
<glyph unicode="&#xe657;" d="M936 784h-848c-48 0-88-40-88-88v-496c0-48 40-88 88-88h848c48 0 88 40 88 88v496c0 48-40 88-88 88zM88 720h848c12.8 0 24-11.2 24-24v-40h-896v40c0 12.8 11.2 24 24 24zM936 176h-848c-12.8 0-24 11.2-24 24v296h896v-296c0-12.8-11.2-24-24-24zM128 432h352v-64h-352v64zM128 304h160v-64h-160v64zM736 432h160v-64h-160v64z" />
<glyph unicode="&#xe658;" d="M768 512v147.2l256 256-44.8 44.8-256-256h-403.2v96h-224v-96h-96v-192h96v-480h480v-96h192v96h96v224h-96v256zM320 512h211.2l-211.2-211.2v211.2zM800 192v-96h-640v640h96v-544h544zM364.8 256l211.2 211.2v-211.2h-211.2z" />
<glyph unicode="&#xe659;" d="M1024 608c0 44.8-35.2 80-80 80s-80-35.2-80-80c0-17.6 6.4-33.6 16-46.4l-139.2-116.8-171.2 193.6c41.6 20.8 70.4 64 70.4 113.6 0 70.4-57.6 128-128 128s-128-57.6-128-128c0-49.6 28.8-92.8 70.4-113.6l-169.6-193.6-140.8 116.8c9.6 12.8 16 28.8 16 46.4 0 44.8-35.2 80-80 80s-80-35.2-80-80c0-40 30.4-73.6 68.8-78.4l54.4-302.4c-35.2-19.2-59.2-56-59.2-99.2 0-62.4 49.6-112 112-112h672c62.4 0 112 49.6 112 112 0 43.2-24 80-60.8 99.2l54.4 302.4c40 4.8 70.4 38.4 70.4 78.4zM512 816c35.2 0 64-28.8 64-64s-28.8-64-64-64c-35.2 0-64 28.8-64 64s28.8 64 64 64zM291.2 355.2l220.8 252.8 192-219.2v-148.8h-516.8l-43.2 238.4 147.2-123.2zM176 80c-27.2 0-48 20.8-48 48s20.8 48 48 48h448c27.2 0 48-20.8 48-48s-20.8-48-48-48h-448z" />
<glyph unicode="&#xe65a;" d="M1024 336c0 158.4-129.6 288-288 288 0 0 0 0 0 0-38.4 0-76.8-8-112-22.4-25.6 11.2-51.2 17.6-80 20.8v36.8c64 14.4 112 72 112 140.8 0 80-64 144-144 144s-144-64-144-144c0-68.8 48-126.4 112-140.8v-36.8c-28.8-3.2-54.4-9.6-80-20.8-35.2 14.4-73.6 22.4-112 22.4 0 0 0 0 0 0-158.4 0-288-129.6-288-288 0-78.4 32-152 86.4-204.8-14.4-19.2-22.4-41.6-22.4-67.2 0-62.4 49.6-112 112-112h672c62.4 0 112 49.6 112 112 0 25.6-8 48-22.4 67.2 54.4 54.4 86.4 126.4 86.4 204.8zM512 880c38.4 0 70.4-27.2 78.4-64h-156.8c8 36.8 40 64 78.4 64zM64 336c0 123.2 100.8 224 224 224 0 0 0 0 0 0 12.8 0 25.6-1.6 38.4-3.2-62.4-52.8-102.4-132.8-102.4-220.8 0-17.6 1.6-36.8 4.8-54.4 3.2-16 16-25.6 32-25.6 1.6 0 3.2 0 6.4 0 17.6 3.2 28.8 20.8 25.6 36.8-3.2 14.4-4.8 28.8-4.8 43.2 0 123.2 100.8 224 224 224s224-100.8 224-224c0-4.8 0-11.2 0-16 0-3.2 0-4.8 0-8 0 0 0 0 0 0-9.6-62.4-44.8-136-128-136h-432c-12.8 0-25.6-1.6-36.8-6.4-48 41.6-75.2 102.4-75.2 166.4zM176 16c-27.2 0-48 20.8-48 48s20.8 48 48 48h448c27.2 0 48-20.8 48-48s-20.8-48-48-48h-448z" />
<glyph unicode="&#xe65b;" d="M992 544c17.6 0 32 14.4 32 32v64c0 17.6-14.4 32-32 32h-22.4l-457.6 289.6-457.6-289.6h-22.4c-17.6 0-32-14.4-32-32v-64c0-17.6 14.4-32 32-32h32v-480h-32c-17.6 0-32-14.4-32-32v-96h1024v96c0 17.6-14.4 32-32 32h-32v480h32zM800 64v480h64v-480h-64zM736 64h-113.6v480h113.6v-480zM462.4 544h81.6v-480h-81.6v480zM398.4 64h-110.4v480h110.4v-480zM512 884.8l337.6-212.8h-675.2l337.6 212.8zM128 544h64v-480h-64v480z" />
<glyph unicode="&#xe65c;" d="M814.4 960h-604.8c-115.2 0-209.6-94.4-209.6-209.6 0-96 78.4-174.4 174.4-174.4 32 0 59.2 6.4 81.6 16v-656h64v608h96v-608h64v608h96v-608h192v656c22.4-11.2 49.6-17.6 81.6-17.6 96 0 174.4 78.4 174.4 174.4 0 116.8-94.4 211.2-209.6 211.2zM320 688h160v-80h-160v80zM849.6 640c-36.8 0-81.6 9.6-81.6 57.6 0 27.2 14.4 54.4 48 54.4 17.6 0 32 14.4 32 32s-14.4 32-32 32c-44.8 0-81.6-25.6-100.8-64h-408c-17.6 38.4-54.4 64-100.8 64-17.6 0-32-14.4-32-32s14.4-32 32-32c33.6 0 48-28.8 48-54.4 0-48-44.8-57.6-81.6-57.6-59.2 0-108.8 49.6-108.8 110.4 0 80 65.6 145.6 145.6 145.6h604.8c80 0 145.6-65.6 145.6-145.6 0-60.8-49.6-110.4-110.4-110.4z" />
<glyph unicode="&#xe65d;" d="M785.6 481.6c56 3.2 102.4 25.6 140.8 64 104 107.2 97.6 310.4 97.6 320l-1.6 30.4h-158.4c0 11.2 0 20.8 0 32v32h-704v-32c0-11.2 0-20.8 0-32h-158.4l-1.6-30.4c0-8-6.4-211.2 97.6-318.4 38.4-38.4 84.8-60.8 140.8-64 48-88 123.2-150.4 241.6-160v-291.2c-193.6-9.6-208-96-208-96h480c0 0-14.4 86.4-208 96v289.6c118.4 9.6 193.6 72 241.6 160zM960 832c-3.2-56-16-176-80-241.6-19.2-19.2-40-32-64-38.4 30.4 84.8 41.6 184 46.4 280h97.6zM144 590.4c-64 65.6-76.8 185.6-80 241.6h97.6c4.8-96 16-195.2 46.4-280-24 6.4-44.8 19.2-64 38.4zM224 896h480c0-286.4-38.4-496-184-512-3.2 0-4.8 0-8 0-190.4 0-283.2 163.2-288 512zM672 672c0 88-72 160-160 160s-160-72-160-160c0-88 72-160 160-160s160 72 160 160zM416 672c0 52.8 43.2 96 96 96s96-43.2 96-96-43.2-96-96-96-96 43.2-96 96z" />
<glyph unicode="&#xe65e;" d="M985.6 875.2c-25.6 24-57.6 36.8-91.2 36.8-32 0-65.6-12.8-91.2-36.8l-544-547.2c-6.4-6.4-11.2-14.4-11.2-24 0-6.4 3.2-14.4 6.4-19.2v0 0c1.6-3.2 3.2-4.8 6.4-6.4l17.6-17.6-276.8-276.8h320l160 160c6.4 6.4 9.6 14.4 9.6 22.4s-3.2 16-9.6 22.4l504 504c49.6 51.2 49.6 131.2 0 182.4zM412.8 211.2l-91.2 89.6 41.6 41.6 91.2-91.2-41.6-40zM409.6 388.8l44.8 44.8 91.2-91.2-44.8-44.8-91.2 91.2zM849.6 828.8c12.8 12.8 28.8 19.2 44.8 19.2 17.6 0 33.6-6.4 46.4-19.2 0 0 0 0 1.6-1.6l-396.8-395.2-46.4 46.4 350.4 350.4zM294.4 48h-139.2l164.8 164.8 70.4-68.8-96-96z" />
<glyph unicode="&#xe65f;" d="M272 960v-96h-144v-64h-128v-696c0-94.4 72-168 163.2-168h692.8c92.8 0 168 75.2 168 168v856h-752zM163.2 0c-56 0-99.2 44.8-99.2 104v632h64v-590.4c0 0 0 0 0-1.6 0-44.8 35.2-80 80-80 25.6 0 49.6 12.8 64 32-4.8-52.8-49.6-96-104-96h-4.8zM960 104c0-57.6-46.4-104-104-104h-556.8c1.6 3.2 3.2 4.8 6.4 8 0 1.6 1.6 1.6 1.6 3.2 3.2 4.8 4.8 8 8 12.8 0 1.6 1.6 1.6 1.6 3.2 1.6 3.2 3.2 6.4 4.8 11.2 0 1.6 1.6 3.2 1.6 4.8 1.6 3.2 3.2 6.4 3.2 9.6 0 1.6 1.6 3.2 1.6 4.8 1.6 3.2 1.6 6.4 3.2 9.6 0 1.6 1.6 3.2 1.6 6.4s1.6 6.4 1.6 11.2c0 1.6 0 3.2 0 4.8 0 4.8 1.6 11.2 1.6 16v790.4h624v-792zM400 832h496v-64h-496v64zM400 384h496v-64h-496v64zM400 256h496v-64h-496v64zM400 672h208v-64h-208v64zM400 544h208v-64h-208v64zM672 704h224v-256h-224v256z" />
<glyph unicode="&#xe660;" d="M416 416h416v-64h-416v64zM416 256h416v-64h-416v64zM416 576h416v-64h-416v64zM936 896h-848c-48 0-88-40-88-88v-720c0-48 40-88 88-88h848c48 0 88 40 88 88v720c0 48-40 88-88 88zM352 832c17.6 0 32-14.4 32-32s-14.4-32-32-32c-17.6 0-32 14.4-32 32s14.4 32 32 32zM224 832c17.6 0 32-14.4 32-32s-14.4-32-32-32c-17.6 0-32 14.4-32 32s14.4 32 32 32zM96 832c17.6 0 32-14.4 32-32s-14.4-32-32-32c-17.6 0-32 14.4-32 32s14.4 32 32 32zM960 88c0-12.8-11.2-24-24-24h-848c-12.8 0-24 11.2-24 24v616h896v-616zM192 256h128v-64h-128v64zM192 416h128v-64h-128v64zM192 576h128v-64h-128v64z" />
<glyph unicode="&#xe661;" d="M896 438.4v345.6h-83.2v96h-540.8v20.8c0 32-27.2 59.2-59.2 59.2h-153.6c-32 0-59.2-27.2-59.2-59.2v-614.4c0-51.2 41.6-94.4 94.4-94.4 1.6 0 1.6 0 3.2 0v0h384c8-142.4 126.4-256 272-256 150.4 0 272 121.6 272 272-1.6 97.6-52.8 182.4-129.6 230.4zM128 286.4c0-16-16-30.4-33.6-30.4-16 0-30.4 14.4-30.4 30.4v609.6h144v-80h540.8v-32h-620.8v-497.6zM484.8 256h-299.2c0 0 0 0 0 0 1.6 4.8 3.2 9.6 3.2 12.8 0 0 0 1.6 0 1.6 0 4.8 1.6 9.6 1.6 14.4v435.2h641.6v-252.8c-25.6 8-52.8 12.8-80 12.8-134.4 0-244.8-96-267.2-224zM862.4 140.8l-44.8-44.8-65.6 65.6-67.2-67.2-44.8 44.8 67.2 67.2-68.8 68.8 44.8 44.8 68.8-68.8 67.2 67.2 44.8-44.8-67.2-67.2 65.6-65.6z" />
<glyph unicode="&#xe662;" d="M928 438.4v286.4c0 49.6-41.6 91.2-91.2 91.2h-745.6c-49.6 0-91.2-41.6-91.2-91.2v-457.6c0-49.6 41.6-91.2 91.2-91.2h574.4c33.6-57.6 94.4-96 166.4-96 105.6 0 192 86.4 192 192 0 70.4-38.4 132.8-96 166.4zM816 752l-352-308.8-352 308.8h704zM640 272c0-11.2 1.6-20.8 3.2-32h-552c-14.4 0-27.2 12.8-27.2 27.2v441.6l379.2-332.8c6.4-4.8 12.8-8 20.8-8s14.4 3.2 20.8 8l379.2 332.8v-248c-11.2 1.6-20.8 3.2-32 3.2-105.6 0-192-86.4-192-192zM960 240h-256v64h256v-64z" />
<glyph unicode="&#xe663;" d="M800 384c-38.4 0-73.6-9.6-104-25.6-30.4 12.8-65.6 25.6-104 38.4-1.6 1.6-4.8 12.8-4.8 19.2v9.6c0 17.6 1.6 30.4 4.8 36.8 6.4 14.4 16 41.6 20.8 67.2 12.8 19.2 24 44.8 30.4 76.8 8 38.4 4.8 57.6-1.6 76.8 0 9.6 1.6 43.2 6.4 70.4 6.4 33.6-3.2 89.6-38.4 134.4-24 30.4-68.8 67.2-147.2 72h-28.8c-78.4-4.8-123.2-41.6-147.2-72-35.2-44.8-44.8-100.8-38.4-134.4 4.8-27.2 6.4-59.2 6.4-70.4-6.4-19.2-9.6-38.4-1.6-76.8 6.4-32 16-57.6 30.4-76.8 4.8-27.2 14.4-52.8 20.8-67.2 3.2-6.4 4.8-19.2 4.8-36.8v-8c0-8-3.2-19.2-4.8-20.8-216-67.2-304-153.6-304-300.8v-32h598.4c35.2-75.2 113.6-128 201.6-128 123.2 0 224 100.8 224 224s-100.8 224-224 224zM65.6 128c8 70.4 49.6 144 257.6 206.4 41.6 12.8 51.2 59.2 49.6 83.2v6.4c0 27.2-3.2 48-11.2 64-6.4 12.8-14.4 36.8-17.6 57.6l-1.6 9.6-6.4 8c-4.8 6.4-14.4 20.8-22.4 56-6.4 28.8-3.2 35.2 0 41.6 0 1.6 1.6 3.2 1.6 6.4v1.6c3.2 16-1.6 67.2-6.4 94.4-3.2 12.8 0 51.2 25.6 84.8 16 19.2 44.8 43.2 99.2 48h25.6c54.4-3.2 84.8-27.2 99.2-48 25.6-32 28.8-70.4 25.6-84.8-4.8-27.2-9.6-78.4-6.4-94.4v-1.6c0-1.6 1.6-3.2 1.6-6.4 1.6-6.4 4.8-12.8 0-41.6-6.4-33.6-16-49.6-22.4-56l-6.4-8-1.6-9.6c-3.2-20.8-11.2-44.8-17.6-57.6-8-16-11.2-36.8-11.2-64v-6.4c-1.6-24 8-70.4 49.6-83.2 24-6.4 44.8-14.4 64-22.4-35.2-38.4-57.6-92.8-57.6-152 0-11.2 1.6-20.8 3.2-32h-513.6zM832 192h96v-64h-256v64h160z" />
<glyph unicode="&#xe664;" d="M932.8 928h-777.6c-49.6 0-91.2-41.6-91.2-92.8v-227.2c-35.2 0-64-28.8-64-64v-512c0-35.2 28.8-64 64-64h256c0 0 1.6 0 1.6 0v0h414.4v64h-160v128h355.2c51.2 0 92.8 41.6 92.8 92.8v582.4c0 51.2-41.6 92.8-91.2 92.8zM192 0c-17.6 0-32 14.4-32 32s14.4 32 32 32c17.6 0 32-14.4 32-32s-14.4-32-32-32zM320 96h-256v448h256v-448zM512 32h-128v128h128v-128zM960 336h-576v208c0 35.2-28.8 64-64 64h-192v227.2c0 16 12.8 28.8 27.2 28.8h776c16 0 28.8-12.8 28.8-28.8v-499.2z" />
<glyph unicode="&#xe665;" d="M320 800h352v-256h-352v256zM960 808c0 30.4-25.6 56-56 56h-72v8c0 48-40 88-88 88h-592c-48 0-88-40-88-88v-104h-32c-17.6 0-32-14.4-32-32s14.4-32 32-32h32v-128h-32c-17.6 0-32-14.4-32-32s14.4-32 32-32h32v-128h-32c-17.6 0-32-14.4-32-32s14.4-32 32-32h32v-128h-32c-17.6 0-32-14.4-32-32s14.4-32 32-32h32v-104c0-48 40-88 88-88h592c48 0 88 40 88 88v8h72c30.4 0 56 25.6 56 56v144c0 8-1.6 16-6.4 24 3.2 8 6.4 16 6.4 24v144c0 8-1.6 16-6.4 24 3.2 8 6.4 16 6.4 24v144c0 8-1.6 16-6.4 24 3.2 8 6.4 16 6.4 24v144zM896 480h-64v128h64v-128zM896 288h-64v128h64v-128zM896 800v-128h-64v128h64zM768 24c0-12.8-11.2-24-24-24h-592c-12.8 0-24 11.2-24 24v104h32c17.6 0 32 14.4 32 32s-14.4 32-32 32h-32v128h32c17.6 0 32 14.4 32 32s-14.4 32-32 32h-32v128h32c17.6 0 32 14.4 32 32s-14.4 32-32 32h-32v128h32c17.6 0 32 14.4 32 32s-14.4 32-32 32h-32v104c0 12.8 11.2 24 24 24h592c12.8 0 24-11.2 24-24v-848z" horiz-adv-x="960" />
<glyph unicode="&#xe666;" d="M512 960c-35.2 0-68.8-3.2-102.4-9.6-1.6 0-3.2 0-3.2-1.6 0 0 0 0-1.6 0-1.6-1.6-4.8-1.6-6.4-3.2 0 0-1.6 0-1.6-1.6-1.6-1.6-3.2-3.2-4.8-4.8l-384-470.4c-1.6-1.6-3.2-4.8-4.8-6.4 0 0 0-1.6 0-1.6-1.6-3.2-3.2-6.4-3.2-8 0 0 0 0 0-1.6s0-1.6 0-3.2c0-281.6 230.4-512 512-512s512 230.4 512 512c0 281.6-230.4 512-512 512zM416 544c0-35.2-22.4-64-48-64-16 0-30.4 11.2-40 28.8 17.6 14.4 33.6 30.4 48 48 9.6 11.2 17.6 22.4 24 33.6 9.6-12.8 16-28.8 16-46.4zM512 0c-236.8 0-430.4 184-446.4 417.6 46.4 3.2 131.2 14.4 209.6 56 20.8-33.6 54.4-57.6 92.8-57.6 62.4 0 112 57.6 112 128 0 43.2-19.2 81.6-48 104 43.2 99.2 33.6 193.6 24 243.2 19.2 3.2 36.8 4.8 56 4.8 246.4 0 448-201.6 448-448s-201.6-448-448-448zM672 480c-62.4 0-112-57.6-112-128s49.6-128 112-128c62.4 0 112 57.6 112 128s-49.6 128-112 128zM672 288c-25.6 0-48 28.8-48 64s22.4 64 48 64c25.6 0 48-28.8 48-64s-22.4-64-48-64zM371.203 238.878l240.459 448.405 56.403-30.246-240.459-448.405-56.403 30.246z" />
<glyph unicode="&#xe667;" d="M470.4 764.8l-8 64c-172.8-24-308.8-158.4-331.2-329.6l64-8c19.2 140.8 132.8 254.4 275.2 273.6zM486.4 638.4l-8 64c-113.6-14.4-204.8-105.6-219.2-219.2l64-8c9.6 83.2 78.4 152 163.2 163.2zM672 448c0 88-72 160-160 160s-160-72-160-160c0-88 72-160 160-160s160 72 160 160zM512 416c-17.6 0-32 14.4-32 32s14.4 32 32 32c17.6 0 32-14.4 32-32s-14.4-32-32-32zM764.8 414.4l-64 8c-11.2-86.4-78.4-153.6-164.8-164.8l8-64c115.2 16 206.4 107.2 220.8 220.8zM828.8 406.4c-19.2-142.4-131.2-256-273.6-275.2l8-64c171.2 22.4 307.2 158.4 329.6 329.6l-64 9.6zM512 960c-281.6 0-512-230.4-512-512s230.4-512 512-512c281.6 0 512 230.4 512 512s-230.4 512-512 512zM512 0c-246.4 0-448 201.6-448 448s201.6 448 448 448c246.4 0 448-201.6 448-448s-201.6-448-448-448z" />
<glyph unicode="&#xe668;" d="M512 960c-283.2 0-512-228.8-512-512s228.8-512 512-512 512 228.8 512 512c0 283.2-228.8 512-512 512zM512 896c236.8 0 430.4-184 446.4-416h-289.6c-14.4 73.6-80 128-156.8 128-17.6 0-35.2-3.2-51.2-8l-145.6 249.6c59.2 30.4 126.4 46.4 196.8 46.4zM576 448c0-36.8-28.8-65.6-64-65.6s-64 28.8-64 65.6 28.8 65.6 64 65.6c35.2 0 64-28.8 64-65.6zM512 0c-246.4 0-448 201.6-448 448 0 68.8 16 134.4 43.2 192l252.8-142.4c-4.8-16-8-32-8-49.6 0-88 72-160 160-160 32 0 62.4 9.6 88 27.2l204.8-204.8c-78.4-68.8-180.8-110.4-292.8-110.4zM851.2 155.2l-206.4 204.8c11.2 17.6 19.2 35.2 24 56h289.6c-6.4-99.2-46.4-190.4-107.2-260.8z" />
<glyph unicode="&#xe669;" d="M544 625.6c-115.2 0-208-92.8-208-208s92.8-208 208-208c115.2 0 208 92.8 208 208s-92.8 208-208 208zM544 273.6c-80 0-144 64-144 144s64 144 144 144c80 0 144-64 144-144s-64-144-144-144zM480 480c-17.6 0-32-14.4-32-32v-62.4c0-17.6 14.4-32 32-32s32 14.4 32 32v62.4c0 17.6-14.4 32-32 32zM936 960h-756.8l-179.2-179.2v-756.8c0-48 40-88 88-88h848c48 0 88 40 88 88v848c0 48-40 88-88 88zM832 896v-160h-576v160h576zM960 24c0-12.8-11.2-24-24-24h-40v128c0 17.6-14.4 32-32 32h-640c-17.6 0-32-14.4-32-32v-128h-104c-12.8 0-24 11.2-24 24v731.2l128 128v-179.2c0-17.6 14.4-32 32-32h640c17.6 0 32 14.4 32 32v192h40c12.8 0 24-11.2 24-24v-848z" />
<glyph unicode="&#xe66a;" d="M0 448c0-283.2 228.8-512 512-512s512 228.8 512 512-228.8 512-512 512c-283.2 0-512-228.8-512-512zM960 448c0-246.4-201.6-448-448-448s-448 201.6-448 448c0 246.4 201.6 448 448 448s448-201.6 448-448zM416 672v-224h-192l288-320 288 320h-192v224c0 35.2-28.8 64-64 64h-64c-35.2 0-64-28.8-64-64zM368 384h65.6l78.4-89.6v-70.4l-144 160z" />
<glyph unicode="&#xe66b;" d="M401.6 480l64-64h1.6l44.8-44.8 244.8 244.8-44.8 44.8-168-168v467.2h-64v-467.2l-168 168-46.4-44.8 137.6-136zM884.8 480h-172.8l-320-320h-11.2c-16 0-28.8 12.8-28.8 28.8v99.2h-281.6l94.4 128h211.2l-64 64h-172.8l-139.2-192v-233.6c0-65.6 52.8-118.4 116.8-118.4h788.8c65.6 0 116.8 52.8 116.8 116.8v235.2l-137.6 192zM960 54.4c0-28.8-24-52.8-52.8-52.8h-790.4c-28.8-1.6-52.8 22.4-52.8 52.8v169.6h224v-35.2c0-51.2 41.6-92.8 92.8-92.8h249.6c51.2 0 107.2 40 107.2 92.8v35.2h224v-169.6z" />
<glyph unicode="&#xe66c;" d="M403.2 480l108.8-108.8 108.8 108.8 137.6 136-46.4 44.8-168-168v467.2h-64v-467.2l-168 168-46.4-44.8 137.6-136zM992 212.8v0l-126.4 203.2c-22.4 38.4-64 64-110.4 64h-44.8l-192-192h-342.4c-8 0-16 0-24-1.6l40 65.6h1.6l19.2 32c11.2 19.2 32 32 54.4 32h108.8l-64 64h-44.8c-48 0-88-25.6-110.4-64v0l-124.8-203.2c-20.8-28.8-32-64-32-100.8 0-97.6 78.4-176 176-176h672c97.6 0 176 78.4 176 176 0 38.4-11.2 72-32 100.8zM848 0h-672c-62.4 0-112 49.6-112 112s49.6 112 112 112h672c62.4 0 112-49.6 112-112s-49.6-112-112-112zM896 112c0-26.51-21.49-48-48-48s-48 21.49-48 48c0 26.51 21.49 48 48 48s48-21.49 48-48zM160 144h576v-64h-576v64z" />
<glyph unicode="&#xe66d;" d="M843.2 713.6c-14.4 137.6-131.2 246.4-270.4 246.4-97.6 0-187.2-52.8-235.2-136-20.8 8-43.2 14.4-65.6 14.4-75.2 0-139.2-56-150.4-129.6-73.6-38.4-121.6-113.6-121.6-200 0-120 92.8-217.6 212.8-222.4h267.2v-227.2l-152 152-44.8-44.8 184-184 44.8-46.4 228.8 228.8-44.8 44.8-152-150.4v227.2h267.2c116.8 0 212.8 96 212.8 214.4 0 108.8-78.4 196.8-180.8 212.8zM480 510.4v-160h-267.2c-83.2 3.2-148.8 73.6-148.8 158.4 0 65.6 38.4 123.2 99.2 147.2l19.2 8v20.8c1.6 48 40 88 88 88 20.8 0 41.6-8 57.6-20.8l33.6-28.8 17.6 41.6c27.2 68.8 88 115.2 156.8 128 81.6 4.8 168-81.6 168-174.4 0-52.8-24-100.8-60.8-132.8 20.8 12.8 44.8 20.8 70.4 20.8 70.4 0 128-57.6 128-128 0-68.8-54.4-124.8-123.2-128v0h-174.4v160h-64z" />
<glyph unicode="&#xe66e;" d="M712 960h-624c-48 0-88-40-88-88v-848c0-48 40-88 88-88h624c48 0 88 40 88 88v848c0 48-40 88-88 88zM640 832h-512v-768h512v-64h-552c-12.8 0-24 11.2-24 24v848c0 12.8 11.2 24 24 24h552v-64zM192 368v160h416v-160h-416zM608 304v-176h-416v176h416zM192 592v176h416v-176h-416zM352 720h96v-64h-96v64zM352 480h96v-64h-96v64zM352 256h96v-64h-96v64z" horiz-adv-x="800" />
<glyph unicode="&#xe66f;" d="M430.4 656h160v-64h-160v64zM430.4 400h160v-64h-160v64zM960 912h-960v-64h64v-624c0-80 64-144 144-144h16v-96h64v96h448v-96h64v96h16c80 0 144 64 144 144v624h64v64h-64zM256 464h512v-192h-512v192zM768 528h-512v192h512v-192zM800 784h-608v-576h608v-64h-592c-44.8 0-80 35.2-80 80v624h672v-64z" />
<glyph unicode="&#xe670;" d="M0 668.8l80-704c1.6-16 16-28.8 32-28.8h384c16 0 30.4 12.8 32 28.8l80 704c1.6 9.6-1.6 17.6-8 25.6-6.4 6.4-14.4 9.6-24 9.6h-73.6c4.8 41.6 8 75.2 9.6 92.8 9.6 89.6 48 99.2 128 99.2h64v64h-64c-84.8 0-176-12.8-192-156.8-1.6-19.2-6.4-54.4-11.2-99.2h-404.8c-9.6 0-17.6-3.2-24-11.2-6.4-6.4-9.6-16-8-24zM430.4 640c-3.2-30.4-6.4-62.4-11.2-96h-340.8l-11.2 96h363.2zM540.8 640l-11.2-96h-44.8c3.2 33.6 6.4 65.6 11.2 96h44.8zM206.4 0l-6.4 73.6c6.4-4.8 12.8-9.6 22.4-9.6 17.6 0 32 14.4 32 32s-14.4 32-32 32c-11.2 0-20.8-4.8-25.6-14.4l-36.8 366.4h252.8c-20.8-198.4-44.8-409.6-44.8-412.8l64-6.4c0 3.2 24 219.2 44.8 419.2h44.8l-54.4-480h-260.8zM384 832c0-17.673-14.327-32-32-32s-32 14.327-32 32c0 17.673 14.327 32 32 32s32-14.327 32-32zM224 896c0-17.673-14.327-32-32-32s-32 14.327-32 32c0 17.673 14.327 32 32 32s32-14.327 32-32zM256 768c0-17.673-14.327-32-32-32s-32 14.327-32 32c0 17.673 14.327 32 32 32s32-14.327 32-32zM352 416c0-17.673-14.327-32-32-32s-32 14.327-32 32c0 17.673 14.327 32 32 32s32-14.327 32-32zM256 320c0-17.673-14.327-32-32-32s-32 14.327-32 32c0 17.673 14.327 32 32 32s32-14.327 32-32zM352 192c0-17.673-14.327-32-32-32s-32 14.327-32 32c0 17.673 14.327 32 32 32s32-14.327 32-32z" horiz-adv-x="704" />
<glyph unicode="&#xe671;" d="M500.8 820.8l121.6-203.2-67.2-41.6h244.8l110.4 217.6-76.8-48c-25.6 38.4-80 124.8-97.6 150.4-33.6 48-75.2 62.4-104 64 1.6 0 3.2 0 3.2 0-3.2 0-8 0-11.2 0-28.8 0-62.4 0-94.4 0-67.2 0-131.2 0-150.4 0-30.4 0-75.2-11.2-112-64-22.4-32-107.2-166.4-107.2-166.4l209.6-128 131.2 219.2zM248 750.4c27.2 43.2 59.2 92.8 70.4 108.8 22.4 30.4 44.8 36.8 60.8 36.8h92.8l-123.2-206.4-100.8 60.8zM1009.6 430.4c-16 36.8-86.4 179.2-86.4 179.2l-219.2-112 116.8-224h-212.8v80l-128-208 128-208v96c49.6 0 128 0 156.8 0 59.2 0 92.8 30.4 108.8 54.4 0-1.6-1.6-3.2-1.6-3.2 1.6 3.2 3.2 6.4 6.4 9.6 0 0 0 0 0 0 8 11.2 25.6 43.2 49.6 80v0c35.2 57.6 68.8 112 78.4 128 14.4 24 28.8 68.8 3.2 128zM950.4 334.4l-48-78.4-110.4 214.4 104 52.8c22.4-44.8 48-99.2 56-116.8 12.8-36.8 6.4-59.2-1.6-72zM302.4 467.2l70.4-36.8-124.8 209.6-243.2-16 84.8-44.8c-22.4-43.2-59.2-113.6-72-139.2-27.2-52.8-16-94.4-3.2-121.6 0 1.6-1.6 1.6-1.6 3.2 1.6-1.6 3.2-4.8 4.8-8 0 0 0 0 0 0 6.4-11.2 22.4-38.4 43.2-72 36.8-60.8 72-120 81.6-137.6 14.4-25.6 48-70.4 112-70.4 43.2 0 192 0 192 0v238.4h-246.4l102.4 195.2zM384 96h-128c-16 0-36.8 4.8-57.6 40l-6.4 9.6-36.8 62.4h228.8v-112z" />
<glyph unicode="&#xe672;" d="M1004.8 203.2l-264 264 209.6 209.6c27.2 27.2 41.6 64 41.6 102.4s-14.4 73.6-41.6 100.8c-27.2 27.2-64 41.6-102.4 41.6s-73.6-14.4-100.8-41.6l-209.6-208-270.4 268.8c-25.6 25.6-65.6 25.6-91.2 0l-158.4-158.4c-25.6-25.6-25.6-65.6 0-91.2l89.6-89.6 180.8-179.2-164.8-164.8c-8-8-12.8-16-17.6-27.2l-99.2-292.8 294.4 99.2c9.6 3.2 19.2 9.6 27.2 17.6l164.8 164.8 264-264c25.6-25.6 65.6-25.6 91.2 0l158.4 158.4c24 24 24 65.6-1.6 89.6zM267.2 534.4l51.2 51.2-44.8 44.8-51.2-51.2-67.2 67.2 78.4 78.4-44.8 44.8-78.4-78.4-46.4 46.4 158.4 158.4 270.4-270.4-158.4-158.4-67.2 67.2zM278.4 97.6l-169.6-57.6 57.6 168c0 1.6 1.6 3.2 3.2 4.8l622.4 622.4c14.4 14.4 35.2 24 56 24s41.6-8 56-24c16-14.4 24-35.2 24-56s-8-41.6-24-56l-43.2-43.2-67.2 67.2-576-579.2 67.2-67.2-1.6-1.6c-1.6-1.6-3.2-1.6-4.8-1.6zM801.6 0l-44.8 44.8 80 78.4-44.8 44.8-78.4-78.4-67.2 67.2 51.2 51.2-44.8 44.8-51.2-51.2-60.8 60.8 158.4 158.4 260.8-262.4-158.4-158.4z" />
<glyph unicode="&#xe673;" d="M1004.8 908.8c-12.8 12.8-28.8 19.2-44.8 19.2s-32-6.4-44.8-19.2l-158.4-156.8c-16 9.6-33.6 16-52.8 16h-608c-52.8 0-96-43.2-96-96v-608c0-52.8 43.2-96 96-96h608c52.8 0 96 43.2 96 96v548.8l204.8 206.4c25.6 24 25.6 65.6 0 89.6zM736 64c0-17.6-14.4-32-32-32h-608c-17.6 0-32 14.4-32 32v608c0 17.6 14.4 32 32 32h608c1.6 0 3.2 0 4.8 0l-292.8-294.4c0 0 0 0 0 0l-64-153.6 155.2 64 228.8 228.8v-484.8z" />
<glyph unicode="&#xe674;" d="M1000 628.8c-16 16-36.8 24-59.2 24-4.8 0-8 0-12.8-1.6v134.4c0 49.6-41.6 91.2-91.2 91.2h-745.6c-49.6 0-91.2-40-91.2-91.2v-457.6c0-49.6 41.6-91.2 91.2-91.2h398.4l-16-16-83.2-201.6 201.6 83.2 408 408c32 32 32 86.4 0 118.4zM816 812.8l-352-308.8-352 308.8h704zM91.2 300.8c-14.4 0-27.2 12.8-27.2 27.2v443.2l379.2-332.8c6.4-4.8 12.8-8 20.8-8s14.4 3.2 20.8 8l379.2 332.8v-158.4l-310.4-312h-462.4zM507.2 137.6l19.2 48 30.4 30.4 27.2-27.2-30.4-30.4-46.4-20.8zM953.6 555.2l-44.8-44.8-27.2 27.2 44.8 44.8c8 8 20.8 8 27.2 0 8-6.4 8-19.2 0-27.2z" />
<glyph unicode="&#xe675;" d="M934.4 422.4c-16 16-36.8 25.6-60.8 25.6-22.4 0-43.2-9.6-60.8-25.6l-83.2-83.2c-32 12.8-115.2 48-139.2 56-1.6 1.6-4.8 12.8-4.8 19.2v9.6c0 17.6 1.6 30.4 4.8 36.8 6.4 14.4 16 41.6 20.8 67.2 12.8 19.2 24 44.8 30.4 76.8 8 38.4 4.8 57.6-1.6 76.8 0 9.6 1.6 43.2 6.4 70.4 6.4 33.6-3.2 89.6-38.4 134.4-24 30.4-68.8 67.2-147.2 72l-12.8 1.6h-14.4c-78.4-4.8-123.2-41.6-147.2-72-35.2-44.8-44.8-100.8-38.4-134.4 4.8-27.2 6.4-59.2 6.4-70.4-6.4-19.2-9.6-38.4-1.6-76.8 6.4-32 16-57.6 30.4-76.8 4.8-27.2 14.4-52.8 20.8-67.2 3.2-6.4 4.8-19.2 4.8-36.8v-9.6c0-8-3.2-19.2-4.8-20.8-216-65.6-304-152-304-299.2v-32h486.4l-36.8-83.2c-4.8-12.8-3.2-25.6 6.4-35.2 8-6.4 16-9.6 24-9.6 4.8 0 8 1.6 12.8 3.2l132.8 57.6c3.2 1.6 6.4 3.2 9.6 6.4l286.4 286.4c0 0 1.6 1.6 1.6 1.6l9.6 9.6c0 0 0 0 1.6 1.6 16 16 25.6 36.8 25.6 60.8 0 22.4-9.6 43.2-25.6 59.2zM323.2 334.4c41.6 12.8 51.2 59.2 49.6 83.2v6.4c0 27.2-3.2 48-11.2 64-6.4 12.8-14.4 36.8-17.6 57.6l-1.6 9.6-6.4 8c-4.8 6.4-14.4 20.8-22.4 56-6.4 28.8-3.2 35.2 0 41.6 0 1.6 1.6 3.2 1.6 6.4v1.6c3.2 16-1.6 67.2-6.4 94.4-3.2 12.8 0 51.2 25.6 84.8 16 19.2 44.8 43.2 99.2 48h25.6c54.4-3.2 84.8-27.2 99.2-48 25.6-32 28.8-70.4 25.6-84.8-4.8-27.2-9.6-78.4-6.4-94.4v-1.6c0-1.6 1.6-3.2 1.6-6.4 1.6-6.4 4.8-12.8 0-41.6-6.4-33.6-16-49.6-22.4-56l-6.4-8-1.6-9.6c-3.2-20.8-11.2-44.8-17.6-57.6-8-16-11.2-36.8-11.2-64v-6.4c-1.6-24 8-70.4 49.6-83.2 14.4-4.8 88-36.8 108.8-44.8l-158.4-161.6h-454.4c8 70.4 49.6 142.4 257.6 206.4zM563.2 76.8l27.2-27.2-46.4-20.8 19.2 48zM891.2 348.8c-1.6 0-1.6 0 0 0l-14.4-12.8c0 0-1.6-1.6-1.6-1.6l-28.8-28.8-28.8 28.8 43.2 43.2c8 8 22.4 8 28.8 0 3.2-3.2 6.4-9.6 6.4-14.4s-1.6-11.2-4.8-14.4z" horiz-adv-x="960" />
<glyph unicode="&#xe676;" d="M1024 560l-512 288-512-288 160-89.6v-171.2c-36.8-12.8-64-48-64-89.6 0-52.8 43.2-96 96-96 17.6 0 35.2 4.8 49.6 14.4 49.6-48 116.8-78.4 190.4-78.4h160c150.4 0 272 121.6 272 272v150.4l160 88zM512 774.4l380.8-214.4-380.8-214.4-235.2 132.8 246.4 83.2-20.8 60.8-300.8-102.4-70.4 40 380.8 214.4zM281.6 176c3.2 9.6 6.4 20.8 6.4 32 0 41.6-25.6 76.8-62.4 89.6 0 8-1.6 14.4-1.6 22.4v113.6l288-161.6v-160h-80c-59.2 0-112 24-150.4 64z" />
<glyph unicode="&#xe677;" d="M680 960h-592c-48 0-88-40-88-88v-848c0-48 40-88 88-88h592c48 0 88 40 88 88v848c0 48-40 88-88 88zM64 820.8l70.4-89.6c6.4-8 16-12.8 25.6-12.8h132.8c9.6-27.2 32-49.6 59.2-59.2v-499.2h-192c-9.6 0-19.2-4.8-25.6-12.8l-70.4-91.2v764.8zM492.8 720l-22.4-8c1.6 3.2 1.6 4.8 3.2 8h19.2zM467.2 704h140.8v-544h-192v502.4c22.4 6.4 40 22.4 51.2 41.6zM384 720c-17.6 0-32 14.4-32 32s14.4 32 32 32 32-14.4 32-32c0-17.6-14.4-32-32-32zM176 96h416l75.2-96h-564.8l73.6 96zM680 896c0 0 1.6 0 1.6 0l-89.6-112h-118.4c-12.8 36.8-48 64-91.2 64-41.6 0-76.8-27.2-91.2-64h-115.2l-89.6 112c0 0 1.6 0 1.6 0h592z" horiz-adv-x="768" />
<glyph unicode="&#xe678;" d="M1012.8 728l-256 224c-11.2 9.6-28.8 11.2-41.6 0l-704-580.8c-6.4-4.8-11.2-14.4-11.2-24v-177.6c0-9.6 3.2-17.6 11.2-24l214.4-187.2c16-14.4 40-22.4 64-22.4s46.4 8 62.4 22.4l660.8 544c8 6.4 11.2 14.4 11.2 24v177.6c0 9.6-4.8 19.2-11.2 24zM267.2 6.4l-203.2 177.6v148.8l345.6 284.8 206.4-180.8-219.2-171.2c-14.4-11.2-16-30.4-4.8-44.8 6.4-8 16-12.8 25.6-12.8 6.4 0 14.4 1.6 19.2 6.4l204.8 160 1.6-96-329.6-268.8c-1.6 0-1.6-1.6-3.2-3.2-6.4-4.8-16-6.4-20.8-6.4-9.6 0-17.6 3.2-22.4 6.4z" />
<glyph unicode="&#xe679;" d="M665.6 648l-153.6-153.6-153.6 153.6-46.4-44.8 155.2-155.2-155.2-153.6 46.4-44.8 153.6 153.6 153.6-153.6 46.4 44.8-155.2 153.6 155.2 155.2zM512 960c-281.6 0-512-230.4-512-512s230.4-512 512-512c281.6 0 512 230.4 512 512s-230.4 512-512 512zM512 0c-246.4 0-448 201.6-448 448s201.6 448 448 448c246.4 0 448-201.6 448-448s-201.6-448-448-448z" />
<glyph unicode="&#xe67a;" d="M784 400v140.8l-256-144v142.4l-248-132.8-60.8 366.4h-150.4l-68.8-425.6v-403.2h1024v600l-240-144zM960 264h-96v-64h96v-64h-96v-64h96v-64h-896v332.8l59.2 371.2h41.6l67.2-401.6 232 124.8v-145.6l256 144v-145.6l240 144v-168zM288 264h96v-64h-96v64zM288 136h96v-64h-96v64zM480 264h96v-64h-96v64zM480 136h96v-64h-96v64zM672 264h96v-64h-96v64zM672 136h96v-64h-96v64zM140.8 828.8c11.2 14.4 24 19.2 43.2 19.2 28.8 0 64-14.4 105.6-30.4 54.4-22.4 115.2-46.4 180.8-46.4 94.4 0 174.4 51.2 246.4 155.2 4.8 6.4 3.2 16-3.2 22.4-6.4 4.8-16 4.8-22.4-1.6-24-27.2-56-38.4-100.8-38.4-41.6 0-86.4 9.6-136 20.8-51.2 11.2-104 22.4-153.6 22.4-83.2 0-144-33.6-185.6-104-4.8-6.4-3.2-16 3.2-20.8s16-3.2 22.4 1.6z" />
<glyph unicode="&#xe67b;" d="M608 832h224v-64h-224v64zM544 576h320v-128h-320v128zM864 352c0-17.673-14.327-32-32-32s-32 14.327-32 32c0 17.673 14.327 32 32 32s32-14.327 32-32zM736 352c0-17.673-14.327-32-32-32s-32 14.327-32 32c0 17.673 14.327 32 32 32s32-14.327 32-32zM608 352c0-17.673-14.327-32-32-32s-32 14.327-32 32c0 17.673 14.327 32 32 32s32-14.327 32-32zM864 256c0-17.673-14.327-32-32-32s-32 14.327-32 32c0 17.673 14.327 32 32 32s32-14.327 32-32zM736 256c0-17.673-14.327-32-32-32s-32 14.327-32 32c0 17.673 14.327 32 32 32s32-14.327 32-32zM608 256c0-17.673-14.327-32-32-32s-32 14.327-32 32c0 17.673 14.327 32 32 32s32-14.327 32-32zM864 160c0-17.673-14.327-32-32-32s-32 14.327-32 32c0 17.673 14.327 32 32 32s32-14.327 32-32zM736 160c0-17.673-14.327-32-32-32s-32 14.327-32 32c0 17.673 14.327 32 32 32s32-14.327 32-32zM608 160c0-17.673-14.327-32-32-32s-32 14.327-32 32c0 17.673 14.327 32 32 32s32-14.327 32-32zM0 616v-528c0-48 40-88 88-88h11.2c11.2-36.8 44.8-64 84.8-64h176c40 0 73.6 27.2 84.8 64h491.2c48 0 88 40 88 88v528c0 40-27.2 73.6-64 84.8v259.2h-480v-256h-32c-3.2 44.8-41.6 80-88 80h-136v112h-64v-115.2c-35.2-9.6-60.8-40-64-76.8h-8c-48 0-88-40-88-88zM896 704h-352v192h352v-192zM936 64h-488v576h488c12.8 0 24-11.2 24-24v-528c0-12.8-11.2-24-24-24zM160 696c0 12.8 11.2 24 24 24h176c12.8 0 24-11.2 24-24v-672c0-12.8-11.2-24-24-24h-176c-12.8 0-24 11.2-24 24v672z" />
<glyph unicode="&#xe67c;" d="M880 848l-144-128v-126.4h-80v126.4l-144 128-144-128v-126.4h-80v126.4l-144 128-144-128v-672h288v193.6h80v-193.6h288v193.6h80v-193.6h288v672l-144 128zM224 112h-160v579.2l80 70.4 80-70.4v-579.2zM592 112h-160v579.2l80 70.4 80-70.4v-579.2zM960 112h-160v579.2l80 70.4 80-70.4v-579.2z" />
<glyph unicode="&#xe67d;" d="M1024 480l-139.2 320h-745.6l-139.2-320v-265.6c0-65.6 52.8-118.4 116.8-118.4h788.8c65.6 0 116.8 52.8 116.8 116.8v267.2h1.6zM180.8 736h428.8v-384h-230.4c-16 0-28.8 12.8-28.8 28.8v99.2h-280l110.4 256zM960 214.4c0-28.8-24-52.8-52.8-52.8h-790.4c-28.8-1.6-52.8 22.4-52.8 52.8v201.6h224v-35.2c0-51.2 41.6-92.8 92.8-92.8h249.6c51.2 0 107.2 40 107.2 92.8v35.2h224v-201.6z" />
<glyph unicode="&#xe67e;" d="M896 630.4v313.6h-768v-313.6l-128-294.4v-265.6c0-65.6 52.8-118.4 116.8-118.4h788.8c65.6 0 116.8 52.8 116.8 116.8v267.2l-126.4 294.4zM192 880h640v-544h-160v-99.2c0-11.2-22.4-28.8-43.2-28.8h-249.6c-16 0-28.8 12.8-28.8 28.8v99.2h-158.4v544zM960 68.8c0-28.8-24-52.8-52.8-52.8h-790.4c-28.8 0-52.8 24-52.8 52.8v203.2h224v-35.2c0-51.2 41.6-92.8 92.8-92.8h249.6c51.2 0 107.2 40 107.2 92.8v35.2h224v-203.2zM288 816h96v-64h-96v64zM416 720h320v-64h-320v64zM288 592h448v-64h-448v64zM288 464h448v-64h-448v64z" />
<glyph unicode="&#xe67f;" d="M704 768l-192 192h-420.8c-51.2 0-91.2-40-91.2-91.2v-841.6c0-49.6 40-91.2 91.2-91.2h587.2c49.6 0 91.2 40 91.2 91.2v676.8l-65.6 64zM704 27.2c0-14.4-11.2-27.2-27.2-27.2h-585.6c-14.4 0-27.2 11.2-27.2 27.2v841.6c0 16 11.2 27.2 27.2 27.2h388.8v-224h224v-644.8z" horiz-adv-x="768" />
<glyph unicode="&#xe680;" d="M736 768l-192 192h-324.8c-51.2 0-91.2-40-91.2-91.2v-36.8h-36.8c-51.2 0-91.2-40-91.2-91.2v-713.6c0-49.6 40-91.2 91.2-91.2h491.2c49.6 0 91.2 40 91.2 91.2v36.8h36.8c49.6 0 91.2 40 91.2 91.2v548.8l-65.6 64zM608 27.2c0-14.4-11.2-27.2-27.2-27.2h-489.6c-14.4 0-27.2 11.2-27.2 27.2v713.6c0 14.4 11.2 27.2 27.2 27.2h36.8v-612.8c0-49.6 40-91.2 91.2-91.2h388.8v-36.8zM736 155.2c0-14.4-11.2-27.2-27.2-27.2h-489.6c-14.4 0-27.2 11.2-27.2 27.2v713.6c0 16 12.8 27.2 27.2 27.2h292.8v-224h224v-516.8z" horiz-adv-x="800" />
<glyph unicode="&#xe681;" d="M865.6 960h-35.2c1.6-3.2 1.6-4.8 1.6-8v-48c0-12.8-11.2-24-24-24h-32c-12.8 0-24 11.2-24 24v48c0 3.2 0 4.8 1.6 8h-611.2c1.6-1.6 1.6-4.8 1.6-6.4v-51.2c-1.6-12.8-11.2-22.4-24-22.4h-32c-12.8 0-24 11.2-24 24v48c0 3.2 0 4.8 1.6 8h-65.6v-1024h65.6c-1.6 3.2-1.6 4.8-1.6 8v48c0 12.8 11.2 24 24 24h32c12.8 0 24-11.2 24-24v-48c0-3.2 0-4.8-1.6-8h611.2c-1.6 3.2-1.6 4.8-1.6 8v48c0 12.8 11.2 24 24 24h32c12.8 0 24-11.2 24-24v-48c0-3.2 0-4.8-1.6-8h65.6v1024h-30.4zM208 576h480v-256h-480v256zM208 640v256h480v-256h-480zM208 256h480v-256h-480v256zM64 792c0 12.8 11.2 24 24 24h32c12.8 0 24-11.2 24-24v-48c0-12.8-11.2-24-24-24h-32c-12.8 0-24 11.2-24 24v48zM64 632c0 12.8 11.2 24 24 24h32c12.8 0 24-11.2 24-24v-48c0-12.8-11.2-24-24-24h-32c-12.8 0-24 11.2-24 24v48zM64 472c0 12.8 11.2 24 24 24h32c12.8 0 24-11.2 24-24v-48c0-12.8-11.2-24-24-24h-32c-12.8 0-24 11.2-24 24v48zM64 312c0 12.8 11.2 24 24 24h32c12.8 0 24-11.2 24-24v-48c0-12.8-11.2-24-24-24h-32c-12.8 0-24 11.2-24 24v48zM120 80h-32c-12.8 0-24 11.2-24 24v48c0 12.8 11.2 24 24 24h32c12.8 0 24-11.2 24-24v-48c0-12.8-11.2-24-24-24zM832 104c0-12.8-11.2-24-24-24h-32c-12.8 0-24 11.2-24 24v48c0 12.8 11.2 24 24 24h32c12.8 0 24-11.2 24-24v-48zM832 264c0-12.8-11.2-24-24-24h-32c-12.8 0-24 11.2-24 24v48c0 12.8 11.2 24 24 24h32c12.8 0 24-11.2 24-24v-48zM832 424c0-12.8-11.2-24-24-24h-32c-12.8 0-24 11.2-24 24v48c0 12.8 11.2 24 24 24h32c12.8 0 24-11.2 24-24v-48zM832 584c0-12.8-11.2-24-24-24h-32c-12.8 0-24 11.2-24 24v48c0 12.8 11.2 24 24 24h32c12.8 0 24-11.2 24-24v-48zM832 744c0-12.8-11.2-24-24-24h-32c-12.8 0-24 11.2-24 24v48c0 12.8 11.2 24 24 24h32c12.8 0 24-11.2 24-24v-48z" horiz-adv-x="896" />
<glyph unicode="&#xe682;" d="M128 368h704v-64h-704v64zM126.4 240h353.6v-64h-353.6v64zM1024 688v0 72c0 48-40 88-88 88h-848c-48 0-88-40-88-88v-624c0-48 40-88 88-88h848c48 0 88 40 88 88v552zM544 720l-32 64h144l32-64h-144zM384 720h-140.8l-32 64h140.8l32-64zM388.8 656h144l-32-64h-144l32 64zM692.8 656h155.2l-32-64h-155.2l32 64zM960 760v-40h-112l-32 64h120c12.8 0 24-11.2 24-24zM88 784h52.8l51.2-104v-88h-128v168c0 12.8 11.2 24 24 24zM936 112h-848c-12.8 0-24 11.2-24 24v392h896v-392c0-12.8-11.2-24-24-24z" />
<glyph unicode="&#xe683;" d="M907.2 689.6l28.8 35.2c16 17.6 24 36.8 24 59.2 0 115.2-241.6 176-480 176s-480-60.8-480-176c0-19.2 6.4-36.8 19.2-52.8v0l1.6-3.2c1.6-1.6 3.2-3.2 4.8-4.8l344-416c4.8-46.4 28.8-249.6 30.4-276.8 3.2-44.8 32-92.8 80-92.8 41.6 0 72 36.8 80 91.2 3.2 30.4 25.6 232 30.4 278.4l49.6 60.8c22.4-1.6 43.2-3.2 62.4-3.2 241.6 0 280 121.6 286.4 161.6 11.2 67.2-24 132.8-81.6 163.2zM896 784c0-6.4-3.2-12.8-9.6-19.2v0l-4.8-4.8c-43.2-41.6-193.6-88-401.6-88-6.4 0-14.4 0-20.8 0-65.6 27.2-107.2 67.2-107.2 112s41.6 84.8 107.2 112c6.4 0 14.4 0 20.8 0 249.6 0 416-67.2 416-112zM529.6 332.8l-1.6-9.6c0-3.2-27.2-254.4-32-288-3.2-24-12.8-36.8-16-36.8s-14.4 12.8-16 35.2c-3.2 32-30.4 278.4-32 289.6l-1.6 9.6-257.6 313.6c86.4-25.6 196.8-38.4 307.2-38.4s220.8 12.8 308.8 38.4l-259.2-313.6zM926.4 536c-8-56-75.2-108.8-235.2-107.2l172.8 209.6c41.6-14.4 70.4-59.2 62.4-102.4z" horiz-adv-x="992" />
<glyph unicode="&#xe684;" d="M750.4 952c-6.4 6.4-16 8-25.6 8l-320-48c-16-1.6-27.2-16-27.2-32v-16h-121.6l-142.4 64-25.6-59.2 72-32c-91.2-44.8-153.6-137.6-153.6-244.8v-432h64v432c0 104 76.8 190.4 177.6 204.8v-40c-75.2-27.2-128-99.2-128-180.8v-640h384v640c0 81.6-52.8 153.6-128 180.8v27.2c0-16 11.2-28.8 27.2-32l320-48c1.6 0 3.2 0 4.8 0 8 0 14.4 3.2 20.8 8 6.4 6.4 11.2 14.4 11.2 24v192c1.6 9.6-3.2 17.6-9.6 24zM441.6 480v-352h-96v352h96zM185.6 576c0 60.8 43.2 113.6 102.4 124.8l22.4 4.8-3.2-1.6c1.6 0 4.8 0 6.4 0 43.2-4.8 62.4-65.6 64-160h-96v-480h96v-64h-192v576zM697.6 772.8l-256 38.4v41.6l256 38.4v-118.4z" horiz-adv-x="768" />
<glyph unicode="&#xe685;" d="M1022.4 200c-4.8 17.6-20.8 27.2-38.4 24-368-86.4-924.8-217.6-956.8-224-16-1.6-28.8-16-28.8-32 0-17.6 14.4-32 32-32 4.8 0 14.4 0 968 225.6 17.6 3.2 28.8 20.8 24 38.4zM995.2 0c-12.8 1.6-105.6 24-236.8 54.4-51.2-12.8-97.6-22.4-140.8-33.6 364.8-84.8 371.2-84.8 374.4-84.8 17.6 0 32 14.4 32 32 0 16-12.8 30.4-28.8 32zM24 161.6c89.6-20.8 171.2-40 244.8-57.6 43.2 9.6 91.2 20.8 140.8 32-128 30.4-257.6 60.8-369.6 86.4-17.6 4.8-35.2-6.4-38.4-24-4.8-16 6.4-33.6 22.4-36.8zM512 160c185.6 0 320 121.6 320 288 0 211.2-147.2 284.8-209.6 316.8-12.8 6.4-27.2 3.2-36.8-6.4s-12.8-24-6.4-36.8c24-49.6 33.6-84.8 25.6-108.8-3.2-11.2-12.8-20.8-27.2-30.4-139.2 112-12.8 320-6.4 329.6 8 12.8 6.4 28.8-4.8 40-9.6 11.2-27.2 12.8-40 4.8-78.4-48-336-224-336-507.2 1.6-168 136-289.6 321.6-289.6zM467.2 835.2c-12.8-41.6-20.8-88-16-134.4l-3.2 3.2c0-160 320-480 64-480-150.4 0-256 92.8-256 224 0 177.6 116.8 310.4 211.2 387.2z" />
<glyph unicode="&#xe686;" d="M832 848l-44.8-17.6c0 0-73.6-28.8-179.2-28.8-89.6 0-92.8 17.6-96 41.6-8 51.2-32 84.8-128 84.8-120 0-252.8-33.6-320-52.8v52.8c0 17.6-14.4 32-32 32s-32-14.4-32-32v-960c0-17.6 14.4-32 32-32s32 14.4 32 32v361.6c54.4 16 198.4 54.4 320 54.4 49.6 0 51.2-8 56-32 11.2-49.6 32-96 168-96 120 0 201.6 33.6 204.8 35.2l19.2 8v548.8zM384 448c-120 0-252.8-33.6-320-52.8v414.4c54.4 16 198.4 54.4 320 54.4 54.4 0 60.8-8 64-25.6v-400c-16 6.4-36.8 9.6-64 9.6zM768 342.4c-24-8-68.8-19.2-128-22.4v416c54.4 3.2 97.6 11.2 128 19.2v-412.8z" horiz-adv-x="832" />
<glyph unicode="&#xe687;" d="M1020.8 800h-572.8c-14.4 73.6-80 128-156.8 128h-224c0 17.6-14.4 32-32 32s-32-14.4-32-32v-960c0-17.6 14.4-32 32-32s32 14.4 32 32v368h160v-112c0-38.4 25.6-64 64-64h731.2l-304 320 302.4 320zM67.2 864h224c52.8 0 96-43.2 96-96v-400c-27.2 20.8-60.8 32-96 32h-224v464zM872 224h-294.4v512h294.4l-241.6-256 241.6-256z" />
<glyph unicode="&#xe688;" d="M159.862 788.361l-144.035 80.076 31.098 55.936 144.035-80.076-31.098-55.936zM48.278 420.328l-31.091 55.936 144.035 80.060 31.091-55.936-144.035-80.060zM0 704h160v-64h-160v64zM975.718 923.617l31.091-55.936-144.035-80.060-31.091 55.936 144.035 80.060zM975.713 420.412l-144.035 80.076 31.098 55.936 144.035-80.076-31.098-55.936zM864 704h160v-64h-160v64zM780.8 832l-76.8 73.6c-12.8 12.8-32 22.4-51.2 22.4h-281.6c-19.2 0-38.4-9.6-51.2-22.4v0l-64-60.8c-3.2-3.2-6.4-6.4-9.6-9.6l-3.2-3.2c-12.8-16-20.8-35.2-20.8-56v-208c0-48 40-88 88-88h11.2c-1.6-8-3.2-16-3.2-24l32-307.2c4.8-38.4 30.4-68.8 64-80v-100.8h192v99.2c33.6 9.6 57.6 40 64 80l32 304v3.2c0 8-1.6 16-3.2 24h11.2c48 0 88 40 88 88v208c1.6 22.4-6.4 43.2-17.6 57.6v0zM640 457.6l-32-300.8c0-3.2-4.8-28.8-24-28.8h-144c-12.8 0-22.4 14.4-24 27.2l-32 302.4c0 12.8 11.2 22.4 24 22.4h208c12.8 0 24-9.6 24-22.4zM736 568c0-12.8-11.2-24-24-24h-400c-12.8 0-24 11.2-24 24v208c0 12.8 11.2 24 24 24h400c12.8 0 24-11.2 24-24v-208zM352 752h320v-64h-320v64zM352 656h320v-64h-320v64z" />
<glyph unicode="&#xe689;" d="M424 427.2l-44.8-44.8c-19.2-19.2-19.2-49.6 0-67.2 19.2-19.2 49.6-19.2 67.2 0l44.8 44.8c19.2 19.2 19.2 49.6 0 67.2-19.2 19.2-48 19.2-67.2 0zM1014.4 622.4l-328 328c-12.8 12.8-32 12.8-44.8 0l-72-70.4c-3.2-3.2-6.4-9.6-8-14.4l-54.4-204.8-497.6-499.2c-6.4-6.4-9.6-14.4-9.6-22.4s3.2-16 9.6-22.4l171.2-171.2c6.4-6.4 14.4-9.6 22.4-9.6s16 3.2 22.4 9.6l497.6 497.6 204.8 54.4c4.8 1.6 11.2 4.8 14.4 8l70.4 70.4c6.4 6.4 9.6 14.4 9.6 22.4 1.6 9.6-1.6 17.6-8 24zM662.4 881.6l140.8-140.8-33.6-33.6-139.2 140.8 32 33.6zM134.4 195.2l62.4-62.4-56-56-62.4 62.4 56 56zM699.2 504c-4.8-1.6-11.2-4.8-14.4-8l-380.8-380.8-124.8 124.8 379.2 379.2c4.8 3.2 6.4 9.6 8 14.4l38.4 147.2 240-240-145.6-36.8z" />
<glyph unicode="&#xe68a;" d="M512 960c-281.6 0-512-230.4-512-512s230.4-512 512-512c281.6 0 512 230.4 512 512s-230.4 512-512 512zM646.4 560h164.8c12.8-35.2 20.8-72 20.8-112 0-49.6-11.2-96-32-137.6l-153.6 249.6zM779.2 624h-297.6l78.4 139.2c91.2-12.8 169.6-65.6 219.2-139.2zM337.6 499.2l-80 142.4c54.4 70.4 137.6 118.4 230.4 126.4l-150.4-268.8zM219.2 577.6l136-243.2h-142.4c-12.8 35.2-20.8 73.6-20.8 113.6 0 46.4 9.6 89.6 27.2 129.6zM545.6 270.4l-78.4-137.6c-91.2 12.8-171.2 64-219.2 137.6h297.6zM681.6 380.8l80-131.2c-52.8-67.2-132.8-112-224-120l144 251.2zM512 0c-246.4 0-448 201.6-448 448s201.6 448 448 448c38.4 0 75.2-4.8 112-14.4l-33.6-57.6c-25.6 4.8-51.2 8-78.4 8-211.2 0-384-172.8-384-384s172.8-384 384-384c112 0 212.8 48 283.2 124.8l38.4-52.8c-81.6-83.2-195.2-136-321.6-136z" />
</font>
</defs>
</svg>
